<?xml version="1.0" standalone="no"?>
<!DOCTYPE svg PUBLIC "-//W3C//DTD SVG 1.1//EN" "http://www.w3.org/Graphics/SVG/1.1/DTD/svg11.dtd" >
<svg xmlns="http://www.w3.org/2000/svg">
<metadata>Generated by IcoMoon</metadata>
<defs>
<font id="icomoon" horiz-adv-x="1024">
<font-face units-per-em="1024" ascent="960" descent="-64" />
<missing-glyph horiz-adv-x="1024" />
<glyph unicode="&#x20;" horiz-adv-x="512" d="" />
<glyph unicode="&#xe900;" glyph-name="arrow-right-1" d="M484.012 440.954c-2.312 2.289-4.142 5.021-5.388 8.027-1.242 3.009-1.873 6.236-1.853 9.49 0.003 6.567 2.616 12.863 7.257 17.504s10.937 7.251 17.504 7.257h467.145c6.415-0.228 12.493-2.937 16.949-7.554 4.459-4.618 6.95-10.785 6.95-17.207 0-6.418-2.491-12.585-6.95-17.207-4.456-4.618-10.534-7.327-16.949-7.551h-467.145c-3.257-0.020-6.484 0.611-9.49 1.853-3.009 1.242-5.738 3.075-8.030 5.388zM834.372 324.162c-4.565 4.687-7.122 10.973-7.122 17.52 0 6.544 2.557 12.83 7.122 17.517l99.269 99.269-99.269 99.269c-4.644 4.644-7.254 10.947-7.254 17.517s2.61 12.873 7.254 17.52c4.648 4.644 10.947 7.254 17.52 7.254 6.57 0 12.869-2.61 17.517-7.254l116.786-116.789c4.568-4.687 7.122-10.973 7.122-17.517s-2.553-12.83-7.122-17.517l-116.786-116.789c-4.687-4.565-10.973-7.122-17.517-7.122-6.547 0-12.833 2.557-17.52 7.122zM227.082 230.734c-32.869 33.059-58.17 72.856-74.155 116.647-15.985 43.794-22.272 90.532-18.428 136.991s17.728 91.529 40.693 132.099c22.965 40.568 54.463 75.667 92.319 102.873s81.164 45.87 126.94 54.701c45.773 8.832 92.916 7.622 138.177-3.547s87.555-32.030 123.967-61.142c36.408-29.112 66.065-65.782 86.918-107.476 1.589-2.93 2.57-6.147 2.887-9.464s-0.040-6.666-1.047-9.84c-1.007-3.178-2.646-6.118-4.816-8.645-2.17-2.53-4.826-4.595-7.812-6.071-2.989-1.477-6.243-2.339-9.569-2.527-3.326-0.192-6.656 0.291-9.791 1.417-3.138 1.126-6.015 2.874-8.46 5.137s-4.407 4.998-5.771 8.037c-13.342 26.32-30.763 50.365-51.62 71.241-38.113 38.112-86.67 64.067-139.535 74.582-52.862 10.515-107.655 5.118-157.452-15.508s-92.357-55.555-122.301-100.371c-29.945-44.815-45.927-97.501-45.927-151.4s15.983-106.588 45.927-151.403c29.944-44.815 72.505-79.743 122.301-100.369 49.796-20.629 104.59-26.023 157.452-15.509 52.865 10.514 101.422 36.471 139.535 74.58 20.794 20.966 38.136 45.089 51.385 71.475 3.055 5.632 8.179 9.863 14.286 11.799 6.108 1.939 12.731 1.434 18.475-1.41 5.744-2.841 10.164-7.799 12.331-13.831s1.909-12.668-0.713-18.515c-22.723-45.779-56.016-85.491-97.125-115.857-41.112-30.367-88.857-50.513-139.294-58.774s-102.116-4.4-150.763 11.261c-48.651 15.664-92.873 42.681-129.015 78.818z" />
<glyph unicode="&#xe901;" glyph-name="up" d="M512 618.667c0.073 0 0.16 0.001 0.247 0.001 11.721 0 22.338-4.726 30.049-12.377l255.997-255.997c7.753-7.753 12.548-18.463 12.548-30.293 0-23.661-19.181-42.841-42.841-42.841-11.83 0-22.541 4.795-30.293 12.548v0l-225.707 226.133-225.707-225.707c-7.412-6.377-17.129-10.259-27.753-10.259-23.564 0-42.667 19.103-42.667 42.667 0 10.624 3.883 20.341 10.307 27.809l-0.047-0.056 256 256c7.667 7.606 18.211 12.323 29.857 12.373h0.010z" />
<glyph unicode="&#xe902;" glyph-name="cabins" horiz-adv-x="1078" d="M1009.128 457.491v338.79c0 82.409-67.042 149.451-149.45 149.451h-645.758c-82.409 0-149.451-67.044-149.451-149.451v-343.161c-39.916-41.731-64.469-98.272-64.469-160.442v-256.889c0-47.155 38.364-85.523 85.522-85.523 47.156 0 85.52 38.368 85.52 85.523v26.53h735.812v-26.53c0-47.155 38.365-85.523 85.52-85.523s85.52 38.365 85.52 85.523v256.889c0 64.369-26.325 122.702-68.767 164.813zM213.92 903.627h645.758c59.193 0 107.345-48.156 107.345-107.345v-305.656c-12.894 7.939-26.616 14.654-41.009 19.981v70.007c0 62.062-50.491 112.556-112.554 112.556h-183.008c-37.675 0-71.063-18.626-91.502-47.134-20.44 28.508-53.827 47.134-91.502 47.134h-183.008c-62.063 0-112.556-50.491-112.556-112.556v-70.007c-16.002-5.923-31.179-13.563-45.307-22.69v308.364c-0.002 59.19 48.152 107.345 107.343 107.345zM232.28 524.959c-13.042 0-25.834-1.099-38.295-3.174v58.829c0 38.847 31.604 70.451 70.451 70.451h183.006c38.847 0 70.451-31.604 70.451-70.451v-55.657l-285.613 0.003zM559.999 580.616c0 38.847 31.607 70.451 70.451 70.451h183.008c38.845 0 70.451-31.604 70.451-70.451v-58.829c-12.466 2.075-25.255 3.174-38.295 3.174h-285.615v55.654zM232.28 482.854h613.334c104.863 0 190.173-85.313 190.173-190.176v-62.456h-211.149c-11.628 0-21.054-9.426-21.054-21.051s9.426-21.054 21.054-21.054h211.151v-83.696h-993.684v83.696h572.006c11.628 0 21.051 9.429 21.051 21.054s-9.423 21.051-21.051 21.051h-572.006v62.456c0 104.863 85.312 190.176 190.175 190.176zM128.937 35.789c0-23.94-19.476-43.418-43.415-43.418s-43.417 19.478-43.417 43.418v26.53h86.832v-26.53zM992.372-7.629c-23.937 0-43.415 19.478-43.415 43.418v26.53h86.833v-26.53c0-23.94-19.475-43.418-43.418-43.418zM719.379 188.106c11.633 0 21.062 9.432 21.062 21.065s-9.429 21.062-21.062 21.062c-11.633 0-21.062-9.429-21.062-21.062s9.429-21.065 21.062-21.065z" />
<glyph unicode="&#xe903;" glyph-name="cinemas" d="M17.067 959.996c-9.425 0-17.067-7.642-17.067-17.067v-494.933c0-9.424 7.642-17.067 17.067-17.067h170.666c9.425-0.003 17.067 7.639 17.069 17.063 0 0.812-0.058 1.621-0.173 2.427-0.717 4.983-1.963 9.779-3.038 14.643h620.817c-1.075-4.864-2.324-9.66-3.041-14.643-1.335-9.329 5.14-17.978 14.473-19.316 0.802-0.116 1.615-0.174 2.423-0.174h170.667c9.428 0 17.067 7.642 17.067 17.067v511.999h-1006.93zM838.516 925.863l9.796-68.506c11.895-82.829 47.452-160.463 102.4-223.573-85.992 54.189-143.466 143.778-156.873 244.531l-6.349 47.548h51.026zM185.48 925.863h51.029l-6.349-47.548c-13.395-100.723-70.829-190.295-156.774-244.496 54.901 63.108 90.423 140.721 102.297 223.521l9.796 68.523zM34.133 925.863h116.855l-9.114-63.693c-11.859-83.138-49.549-160.445-107.742-220.996v284.688zM34.133 465.063v100.471c28.41-26.272 46.287-61.983 50.295-100.471h-50.295zM118.511 465.063c-3.569 41.51-20.484 80.746-48.213 111.838 47.616-20.524 83.2-61.737 96.563-111.838h-48.35zM832.713 499.197h-641.448c-19.13 46.254-54.63 83.842-99.721 105.574 94.56 59.646 157.743 158.21 172.458 269.038l6.929 52.053h482.134l6.929-52.053c14.715-110.826 77.896-209.393 172.455-269.038-45.094-21.733-80.599-59.317-99.738-105.574zM857.136 465.063c13.36 50.101 48.947 91.317 96.563 111.838-27.727-31.092-44.643-70.328-48.213-111.838h-48.35zM989.863 465.063h-50.295c4.011 38.489 21.886 74.199 50.295 100.471v-100.471zM989.863 641.174c-58.194 60.555-95.884 137.868-107.742 221.013l-9.114 63.676h116.855v-284.688zM1013.163 108.937c-7.298 9.223-18.364 14.66-30.123 14.797h-44.373v90.334c0.099 11.401-3.727 22.49-10.837 31.403-7.298 9.223-18.364 14.657-30.123 14.797h-44.373v90.334c0.099 11.401-3.727 22.49-10.837 31.403-7.298 9.223-18.364 14.657-30.123 14.797h-105.813c-8.974-0.096-17.623-3.359-24.422-9.216-7.369 5.902-16.517 9.148-25.958 9.216h-117.76c-9.663-0.116-18.995-3.557-26.419-9.745-7.444 6.205-16.8 9.646-26.487 9.745h-117.76c-9.417-0.082-18.534-3.328-25.89-9.216-6.798 5.857-15.449 9.12-24.422 9.216h-105.813c-11.733-0.16-22.773-5.594-30.054-14.797-7.136-8.902-10.987-19.992-10.906-31.403v-90.334h-44.373c-11.733-0.16-22.773-5.594-30.054-14.797-7.136-8.902-10.986-19.992-10.906-31.403v-90.334h-44.373c-11.733-0.16-22.773-5.594-30.054-14.797-7.136-8.902-10.987-19.992-10.906-31.403v-141.534h1023.999v141.534c0.099 11.404-3.727 22.49-10.837 31.403zM699.733 350.601c-0.079 3.526 1.027 6.973 3.14 9.796 0.847 1.249 2.188 2.075 3.686 2.27h105.813c1.471-0.212 2.785-1.038 3.618-2.27 2.113-2.823 3.219-6.27 3.14-9.796v-90.334h-27.238c-8.974-0.096-17.623-3.359-24.422-9.216-7.369 5.902-16.517 9.148-25.958 9.216h-41.779v90.334zM529.067 350.601c-0.055 3.348 1.126 6.598 3.311 9.131 1.529 1.802 3.748 2.871 6.11 2.935h117.76c2.362-0.065 4.581-1.133 6.11-2.935 2.185-2.533 3.366-5.782 3.311-9.131v-90.334h-41.847c-9.687-0.099-19.043-3.54-26.487-9.745-7.444 6.205-16.8 9.646-26.487 9.745h-41.779v90.334zM358.4 350.601c-0.051 3.348 1.126 6.598 3.311 9.131 1.529 1.802 3.748 2.871 6.11 2.935h117.76c2.362-0.065 4.584-1.133 6.11-2.935 2.185-2.533 3.366-5.782 3.311-9.131v-90.334h-41.847c-9.687-0.099-19.043-3.54-26.487-9.745-7.444 6.205-16.8 9.646-26.487 9.745h-41.779v90.334zM204.801 350.601c-0.079 3.526 1.026 6.973 3.14 9.796 0.847 1.249 2.189 2.075 3.686 2.27h105.813c1.472-0.212 2.786-1.038 3.618-2.27 2.114-2.823 3.219-6.27 3.14-9.796v-90.334h-41.711c-9.419-0.082-18.536-3.328-25.89-9.216-6.816 5.871-15.494 9.137-24.491 9.216h-27.307v90.334zM34.134-29.867v107.401c-0.079 3.526 1.026 6.973 3.14 9.796 0.847 1.249 2.189 2.075 3.686 2.27h105.813c1.472-0.212 2.786-1.038 3.618-2.27 2.114-2.823 3.219-6.27 3.14-9.796l0.068-107.401h-119.467zM146.774 123.733h-27.307v90.334c-0.079 3.526 1.026 6.973 3.14 9.796 0.847 1.249 2.189 2.075 3.686 2.27h105.813c1.472-0.212 2.786-1.038 3.618-2.27 2.114-2.823 3.219-6.27 3.14-9.796v-90.334h-41.711c-9.418-0.082-18.536-3.328-25.89-9.216-6.818 5.871-15.494 9.137-24.491 9.216zM324.267-29.867h-136.533v107.401c-0.054 3.348 1.126 6.598 3.311 9.131 1.527 1.802 3.748 2.871 6.11 2.935h117.76c2.362-0.065 4.582-1.133 6.11-2.935 2.185-2.533 3.364-5.782 3.311-9.131l-0.068-107.401zM314.847 123.733h-41.779v90.334c-0.053 3.348 1.126 6.598 3.311 9.131 1.527 1.802 3.748 2.871 6.11 2.935h117.759c2.362-0.065 4.584-1.133 6.11-2.935 2.185-2.533 3.366-5.782 3.311-9.131v-90.334h-41.847c-9.687-0.099-19.043-3.54-26.487-9.745-7.443 6.205-16.799 9.646-26.487 9.745zM494.933-29.867h-136.533v107.401c-0.051 3.348 1.126 6.598 3.311 9.131 1.529 1.802 3.748 2.871 6.11 2.935h117.76c2.362-0.065 4.584-1.133 6.11-2.935 2.185-2.533 3.366-5.782 3.311-9.131l-0.068-107.401zM485.513 123.733h-41.779v90.334c-0.055 3.348 1.126 6.598 3.311 9.131 1.529 1.802 3.748 2.871 6.11 2.935h117.76c2.362-0.065 4.584-1.133 6.11-2.935 2.185-2.533 3.366-5.782 3.311-9.131v-90.334h-41.847c-9.687-0.099-19.043-3.54-26.487-9.745-7.444 6.205-16.8 9.646-26.487 9.745zM665.6-29.867h-136.533v107.401c-0.055 3.348 1.126 6.598 3.311 9.131 1.529 1.802 3.748 2.871 6.11 2.935h117.76c2.362-0.065 4.581-1.133 6.11-2.935 2.185-2.533 3.366-5.782 3.311-9.131l-0.068-107.401zM656.179 123.733h-41.779v90.334c-0.055 3.348 1.126 6.598 3.311 9.131 1.526 1.802 3.748 2.871 6.11 2.935h117.76c2.362-0.065 4.581-1.133 6.11-2.935 2.185-2.533 3.366-5.782 3.311-9.131v-90.334h-41.847c-9.687-0.099-19.043-3.54-26.487-9.745-7.444 6.205-16.8 9.646-26.487 9.745zM836.267-29.867h-136.533v107.401c-0.055 3.348 1.126 6.598 3.311 9.131 1.526 1.802 3.748 2.871 6.11 2.935h117.76c2.362-0.065 4.581-1.133 6.11-2.935 2.185-2.533 3.362-5.782 3.311-9.131l-0.068-107.401zM826.846 123.733h-41.779v90.334c-0.079 3.526 1.027 6.973 3.14 9.796 0.847 1.249 2.188 2.075 3.686 2.27h105.813c1.471-0.212 2.785-1.038 3.618-2.27 2.113-2.823 3.219-6.27 3.14-9.796v-90.334h-27.238c-8.974-0.096-17.623-3.359-24.422-9.216-7.373 5.905-16.517 9.148-25.958 9.216zM870.4-29.867v107.401c-0.079 3.526 1.024 6.973 3.14 9.796 0.847 1.249 2.188 2.075 3.686 2.27h105.813c1.471-0.212 2.785-1.038 3.618-2.27 2.113-2.823 3.219-6.27 3.14-9.796l0.068-107.401h-119.467z" />
<glyph unicode="&#xe904;" glyph-name="date-1" horiz-adv-x="1043" d="M477.843 831.156h-195.623c-5.323 0-10.425 2.114-14.187 5.877-3.764 3.763-5.877 8.866-5.877 14.187s2.114 10.425 5.877 14.187c3.762 3.763 8.864 5.876 14.187 5.876h195.623c5.321 0 10.424-2.114 14.187-5.876 3.762-3.763 5.875-8.866 5.875-14.187s-2.114-10.425-5.875-14.187c-3.764-3.763-8.866-5.877-14.187-5.877zM761.093 831.156h-195.623c-5.323 0-10.425 2.114-14.187 5.877-3.764 3.763-5.877 8.866-5.877 14.187s2.114 10.425 5.877 14.187c3.762 3.763 8.864 5.876 14.187 5.876h195.623c5.321 0 10.424-2.114 14.187-5.876 3.762-3.763 5.875-8.866 5.875-14.187s-2.114-10.425-5.875-14.187c-3.764-3.763-8.866-5.877-14.187-5.877zM970.677-50.75h-898.020c-19.264 0.019-37.732 7.68-51.354 21.301s-21.283 32.092-21.302 51.355v776.722c0.020 19.263 7.681 37.732 21.302 51.354s32.090 21.283 51.354 21.302h121.938c5.321 0 10.424-2.114 14.187-5.876 3.762-3.763 5.875-8.866 5.875-14.187s-2.114-10.425-5.875-14.187c-3.764-3.763-8.866-5.877-14.187-5.877h-121.938c-8.621-0.020-16.883-3.453-22.979-9.549s-9.53-14.358-9.549-22.979v-776.722c0.020-8.621 3.453-16.882 9.549-22.98 6.096-6.096 14.358-9.529 22.979-9.548h898.020c8.619 0.023 16.879 3.458 22.972 9.554s9.525 14.355 9.544 22.974v776.722c-0.019 8.619-3.453 16.879-9.544 22.975-6.094 6.096-14.353 9.531-22.972 9.554h-121.937c-5.321 0-10.425 2.114-14.187 5.877-3.764 3.763-5.877 8.866-5.877 14.187s2.114 10.425 5.877 14.187c3.762 3.763 8.866 5.876 14.187 5.876h121.937c19.261-0.023 37.728-7.686 51.347-21.307 13.617-13.621 21.278-32.088 21.297-51.349v-776.722c-0.019-19.261-7.68-37.728-21.297-51.349-13.619-13.621-32.086-21.284-51.347-21.307zM1023.256 676.827h-1003.192c-5.321 0-10.425 2.114-14.187 5.877-3.763 3.762-5.877 8.866-5.877 14.187s2.114 10.424 5.877 14.187c3.763 3.762 8.866 5.875 14.187 5.875h1003.192c5.323 0 10.425-2.114 14.187-5.875 3.764-3.764 5.877-8.866 5.877-14.187s-2.114-10.425-5.877-14.187c-3.762-3.764-8.864-5.877-14.187-5.877zM238.407 750.298c-16.935 0.021-33.172 6.756-45.147 18.732s-18.712 28.211-18.731 45.147v74.086c0 16.942 6.73 33.189 18.71 45.169 11.979 11.979 28.226 18.709 45.168 18.709s33.189-6.73 45.168-18.709c11.981-11.98 18.71-28.227 18.71-45.169v-74.086c-0.019-16.935-6.756-33.172-18.731-45.147s-28.212-18.711-45.147-18.732zM238.407 912.064c-6.293-0.020-12.323-2.529-16.772-6.978s-6.957-10.479-6.979-16.772v-74.086c0-6.299 2.502-12.34 6.957-16.794 4.453-4.454 10.495-6.956 16.794-6.956s12.34 2.502 16.794 6.956c4.455 4.454 6.957 10.495 6.957 16.794v74.036c-0.019 6.293-2.529 12.322-6.979 16.772s-10.48 6.958-16.772 6.978v0.050zM521.658 750.298c-16.935 0.021-33.172 6.756-45.147 18.732s-18.71 28.211-18.731 45.147v74.086c0 16.942 6.731 33.189 18.71 45.169s28.228 18.709 45.168 18.709c16.942 0 33.189-6.73 45.17-18.709 11.979-11.98 18.708-28.227 18.708-45.169v-74.086c-0.019-16.935-6.756-33.172-18.731-45.147s-28.21-18.711-45.147-18.732zM521.658 912.064c-6.293-0.020-12.323-2.529-16.772-6.978s-6.957-10.479-6.979-16.772v-74.086c0-6.299 2.504-12.34 6.957-16.794s10.495-6.956 16.794-6.956c6.3 0 12.34 2.502 16.796 6.956 4.453 4.454 6.955 10.495 6.955 16.794v74.036c-0.019 6.293-2.529 12.322-6.979 16.772s-10.48 6.958-16.772 6.978v0.050zM804.908 750.298c-16.935 0.021-33.172 6.756-45.147 18.732s-18.71 28.211-18.731 45.147v74.086c0 16.942 6.731 33.189 18.71 45.169s28.228 18.709 45.168 18.709c16.942 0 33.189-6.73 45.17-18.709 11.979-11.98 18.708-28.227 18.708-45.169v-74.086c-0.019-16.935-6.756-33.172-18.731-45.147s-28.21-18.711-45.147-18.732zM804.908 912.064c-6.293-0.020-12.323-2.529-16.772-6.978s-6.957-10.479-6.979-16.772v-74.086c0-6.299 2.504-12.34 6.957-16.794s10.495-6.956 16.794-6.956c6.3 0 12.34 2.502 16.796 6.956 4.453 4.454 6.955 10.495 6.955 16.794v74.036c-0.019 6.293-2.529 12.322-6.979 16.772s-10.48 6.958-16.772 6.978v0.050zM315.634 363.68h-183.27c-5.321 0-10.425 2.114-14.187 5.877-3.763 3.762-5.877 8.866-5.877 14.187v183.282c0 5.323 2.114 10.425 5.877 14.187 3.763 3.764 8.866 5.877 14.187 5.877h183.27c5.323 0 10.425-2.114 14.187-5.877 3.764-3.762 5.877-8.864 5.877-14.187v-183.282c0-5.321-2.114-10.425-5.877-14.187-3.762-3.764-8.864-5.877-14.187-5.877zM152.427 403.81h143.144v143.155h-143.144v-143.155zM617.428 363.68h-183.271c-5.323 0-10.425 2.114-14.187 5.877-3.764 3.762-5.877 8.866-5.877 14.187v183.282c0 5.323 2.114 10.425 5.877 14.187 3.762 3.764 8.864 5.877 14.187 5.877h183.271c5.321 0 10.424-2.114 14.187-5.877 3.762-3.762 5.875-8.864 5.875-14.187v-183.282c0-5.321-2.114-10.425-5.875-14.187-3.764-3.764-8.866-5.877-14.187-5.877zM454.219 403.81h143.144v143.155h-143.144v-143.155zM910.947 363.68h-183.284c-5.321 0-10.424 2.114-14.187 5.877-3.762 3.762-5.875 8.866-5.875 14.187v183.282c0 5.323 2.114 10.425 5.875 14.187 3.764 3.764 8.866 5.877 14.187 5.877h183.284c5.321 0 10.424-2.114 14.187-5.877 3.762-3.762 5.875-8.864 5.875-14.187v-183.282c0-5.321-2.114-10.425-5.875-14.187-3.764-3.764-8.866-5.877-14.187-5.877zM747.727 403.81h143.155v143.155h-143.155v-143.155zM315.634 79.126h-183.27c-5.321 0-10.425 2.114-14.187 5.877-3.763 3.762-5.877 8.864-5.877 14.187v183.271c0 5.321 2.114 10.424 5.877 14.187 3.763 3.762 8.866 5.875 14.187 5.875h183.27c5.323 0 10.425-2.114 14.187-5.875 3.764-3.764 5.877-8.866 5.877-14.187v-183.271c0-5.323-2.114-10.425-5.877-14.187-3.762-3.764-8.864-5.877-14.187-5.877zM152.427 119.253h143.144v143.144h-143.144v-143.144zM617.428 79.126h-183.271c-5.323 0-10.425 2.114-14.187 5.877-3.764 3.762-5.877 8.864-5.877 14.187v183.271c0 5.321 2.114 10.424 5.877 14.187 3.762 3.762 8.864 5.875 14.187 5.875h183.271c5.321 0 10.424-2.114 14.187-5.875 3.762-3.764 5.875-8.866 5.875-14.187v-183.271c0-5.323-2.114-10.425-5.875-14.187-3.764-3.764-8.866-5.877-14.187-5.877zM454.219 119.253h143.144v143.144h-143.144v-143.144zM910.947 79.126h-183.284c-5.321 0-10.424 2.114-14.187 5.877-3.762 3.762-5.875 8.864-5.875 14.187v183.271c0 5.321 2.114 10.424 5.875 14.187 3.764 3.762 8.866 5.875 14.187 5.875h183.284c5.321 0 10.424-2.114 14.187-5.875 3.762-3.764 5.875-8.866 5.875-14.187v-183.271c0-5.323-2.114-10.425-5.875-14.187-3.764-3.764-8.866-5.877-14.187-5.877zM747.727 119.253h143.155v143.144h-143.155v-143.144z" />
<glyph unicode="&#xe905;" glyph-name="facilities" horiz-adv-x="1205" d="M1201.149 81.107c-3.373 4.524-8.686 7.189-14.33 7.189h-87.82c36.156 29.365 59.32 74.153 59.32 124.253v215.901c0 88.245-71.803 160.045-160.048 160.045h-51.884c18.236 10.818 35.25 23.962 50.58 39.304 53.971 53.97 80.956 128.602 74.017 204.76-0.783 8.603-7.602 15.414-16.194 16.195-58.097 5.285-114.836-8.833-162.75-40.009-11.884 55.644-42.059 106.131-86.754 143.346-6.629 5.524-16.261 5.524-22.895 0-44.698-37.215-74.863-87.711-86.757-143.346-47.932 31.177-104.686 45.303-162.747 40.009-8.596-0.781-15.414-7.592-16.194-16.195-6.93-76.149 20.043-150.781 74.014-204.751 15.342-15.342 32.346-28.494 50.571-39.313h-44.502c-49.872 0-95.259-22.904-124.892-59.862v80.827c0 9.882-8.005 17.887-17.893 17.887h-60.202v82.004c0 28.869-23.486 52.362-52.363 52.362h-29.045v85.561c0 28.777-23.41 52.188-52.187 52.188h-69.155c-28.777 0-52.197-23.41-52.197-52.188v-85.561h-29.026c-28.888 0-52.39-23.493-52.39-52.371v-86.739c0-9.879 8.015-17.884 17.895-17.884s17.886 8.005 17.886 17.884v86.739c0 9.145 7.454 16.581 16.608 16.581h231.618c9.135 0 16.571-7.436 16.571-16.581v-81.995h-61.912c-9.89 0-17.895-8.005-17.895-17.887v-132.665c-77.132-37.105-126.323-114.769-126.323-201.111 0-78.456 40.699-147.582 102.096-187.389h-144.246c-9.108 0.054-16.507 7.463-16.507 16.571v446.166c0 9.882-8.015 17.896-17.895 17.896s-17.886-8.014-17.886-17.896v-446.166c0-5.792 0.956-11.36 2.702-16.571h-42.242c-5.643 0-10.965-2.665-14.338-7.189-3.382-4.521-4.421-10.376-2.822-15.791 10.928-36.837 32.978-68.463 63.768-91.452 30.79-22.986 67.38-35.135 105.8-35.135h684.926c9.882 0 17.887 8.014 17.887 17.893 0 9.882-8.005 17.896-17.887 17.896h-684.917c-53.667 0-102.546 31.093-126.158 77.996h1116.396c-23.603-46.902-72.481-77.996-126.148-77.996h-107.601c-9.882 0-17.896-8.014-17.896-17.896 0-9.879 8.014-17.893 17.896-17.893h107.601c38.418 0 75.008 12.149 105.8 35.135 30.789 22.989 52.838 54.615 63.768 91.452 1.599 5.415 0.56 11.27-2.822 15.791zM897.361 768.69c39.918 30.662 88.456 46.461 138.851 45.303 1.343-60.147-21.736-118.079-64.548-160.892-36.491-36.497-83.98-58.639-134.451-63.548 38.852 45.929 60.515 104.22 60.515 165.424 0 4.586-0.126 9.154-0.367 13.713zM793.841 914.379c43.466-41.572 68.108-98.851 68.108-159.402 0-60.561-24.642-117.841-68.108-159.403-43.466 41.562-68.105 98.843-68.105 159.403 0 60.551 24.639 117.831 68.105 159.402zM551.46 813.993c50.462 1.195 98.946-14.642 138.86-45.313-0.238-4.55-0.367-9.118-0.367-13.713 0-61.195 21.664-119.494 60.524-165.424-50.468 4.909-97.952 27.043-134.466 63.557-42.812 42.813-65.882 100.745-64.551 160.892zM276.599 761.714h-101.976v85.561c0 9.044 7.362 16.406 16.415 16.406h69.155c9.053 0 16.406-7.362 16.406-16.406v-85.561zM313.979 591.568h122.124v-48.881h-122.124v48.881zM187.656 275.685c0 75.89 45.267 143.806 115.321 173.023 6.665 2.777 11.002 9.294 11.002 16.507v41.692h122.124v-41.692c0-7.213 4.337-13.731 11.002-16.507 70.054-29.217 115.32-97.132 115.32-173.023 0-103.328-84.052-187.389-187.38-187.389-103.336 0-187.39 84.061-187.39 187.389zM998.454 88.296h-502.332c40.993 26.579 72.755 66.241 89.338 113.022h332.848c50.302 0 91.223 40.921 91.223 91.223v22.161c0 50.302-40.921 91.22-91.223 91.22h-308.546c-9.891 0-17.896-8.005-17.896-17.884 0-9.882 8.005-17.896 17.896-17.896h308.546c30.569 0 55.441-24.871 55.441-55.441v-22.161c0-30.569-24.871-55.441-55.441-55.441h-323.436c2.187 12.535 3.346 25.422 3.346 38.584 0 83.061-45.553 158.088-117.685 196.692 18.013 47.929 63.952 80.33 116.251 80.33h401.477c68.521 0 124.265-55.745 124.265-124.256v-215.901c0.009-68.454-55.642-124.154-124.073-124.253z" />
<glyph unicode="&#xe906;" glyph-name="global" d="M188.934 50.814c4.221-3.436 9.302-5.108 14.35-5.108 6.607 0 13.16 2.863 17.656 8.385 7.93 9.744 6.463 24.074-3.279 32.006-67.207 54.713-116.804 125.576-145.070 204.778 85.567-17.315 173.534-29.466 263.031-36.348 4.167-41.080 9.681-80.571 16.471-117.727 2.259-12.357 14.106-20.537 26.466-18.29 12.359 2.261 20.547 14.11 18.288 26.466-6.154 33.678-11.227 69.37-15.167 106.478 37.024-2.087 74.299-3.285 111.744-3.582 0.059 0 0.122 0 0.183 0 12.481 0 22.646 10.069 22.745 22.569 0.098 12.566-10.006 22.829-22.567 22.928-39.007 0.309-77.812 1.613-116.338 3.905-3.85 48.723-5.829 99.373-5.829 150.731 0 42.494 1.335 84.202 3.905 124.493 44.822-3.003 90.317-4.508 136.403-4.508 45.861 0 91.384 1.526 136.359 4.561 2.121-32.908 3.413-66.72 3.814-101.067 0.148-12.475 10.301-22.485 22.741-22.485 0.089 0 0.179 0 0.272 0 12.562 0.148 22.626 10.451 22.481 23.012-0.414 35.344-1.757 70.17-3.974 104.123 50.597 4.596 100.401 11.128 149.118 19.572 12.379 2.146 20.677 13.92 18.53 26.301-2.146 12.377-13.924 20.683-26.299 18.53-47.323-8.204-95.707-14.557-144.876-19.039-9.698 107.301-28.27 203.576-53.628 276.207 95.132-26.153 180.047-82.175 242.792-162.238 7.753-9.889 22.049-11.62 31.939-3.873 9.889 7.749 11.624 22.048 3.873 31.936-97.82 124.809-244.758 196.391-403.151 196.391-30.925 0-61.239-2.76-90.667-8.040-0.679-0.094-1.357-0.215-2.024-0.369-168.224-30.898-307.96-144.296-375.518-296.559-0.703-1.26-1.297-2.601-1.759-4.015-26.98-62.249-41.948-130.885-41.948-202.933 0-154.675 68.865-299.447 188.934-397.192zM440.263 908.931c23.365 3.617 47.291 5.495 71.654 5.495 24.224 0 48.158-1.838 71.629-5.434 29.279-70.788 50.66-173.738 61.233-291.075-43.813-2.948-88.166-4.427-132.858-4.427-44.918 0-89.271 1.463-132.933 4.376 10.486 117.274 31.77 219.807 61.275 291.065zM387.287 897.519c-25.482-72.856-43.969-168.819-53.597-276.089-81.967 7.444-161.365 20.1-237.522 37.888 58.815 115.237 164.178 202.961 291.118 238.201zM45.497 448.006c0 59.585 11.238 116.614 31.696 169.047 81.025-19.387 165.619-33.081 253.001-40.988-2.686-41.521-4.080-84.421-4.080-128.059 0-50.148 1.845-99.686 5.451-147.523-93.304 7.497-184.835 20.84-273.599 39.922-8.22 34.857-12.469 70.922-12.469 107.601zM841.88 907.993c37.48 8.457 87.906 12.777 115.358-14.673 32.087-32.086 27.268-104.257-13.216-198.011-41.486-96.063-116.701-207.476-212.854-315.595-17.266 12.672-38.561 20.165-61.57 20.165-57.498 0-104.277-46.779-104.277-104.277 0-57.5 46.779-104.277 104.277-104.277 57.5 0 104.277 46.777 104.277 104.277 0 17.928-4.549 34.818-12.554 49.569 101.14 113.006 180.563 230.426 224.471 332.099 49.69 115.068 50.94 200.903 3.621 248.223-23.235 23.236-69.431 46.761-157.538 26.881-12.256-2.765-19.95-14.943-17.185-27.197s14.941-19.956 27.191-17.185zM669.596 236.824c-32.412 0-58.78 26.368-58.78 58.78s26.368 58.78 58.78 58.78c32.412 0 58.78-26.368 58.78-58.78s-26.368-58.78-58.78-58.78zM563.137 154.163c-107.148-88.704-216.58-156.617-308.143-191.232-47.386-17.914-89.324-26.856-124.948-26.856-40.394 0-72.672 11.492-95.617 34.438-23.128 23.129-46.602 69.073-27.091 156.605 2.735 12.26 14.895 19.988 27.154 17.252 12.264-2.731 19.988-14.889 17.256-27.152-8.288-37.183-12.438-87.237 14.855-114.534 29.166-29.168 90.36-28.172 172.302 2.806 86.993 32.884 191.837 98.133 295.217 183.719 9.677 8.011 24.019 6.662 32.032-3.015 8.011-9.679 6.662-24.021-3.017-32.032zM1013.6 550.331c6.796-33.501 10.242-67.931 10.242-102.325 0-45.468-5.959-89.58-17.136-131.576-0.161-0.766-0.366-1.518-0.605-2.259-51.086-188.406-207.321-334.035-401.522-369.688-0.646-0.146-1.298-0.264-1.955-0.356-29.444-5.285-59.758-8.044-90.701-8.044-37.27 0-74.482 4.031-110.598 11.983-12.27 2.702-20.027 14.84-17.325 27.108 2.7 12.272 14.844 20.029 27.108 17.325 32.912-7.247 66.83-10.919 100.817-10.919 24.363 0 48.284 1.875 71.645 5.492 15.38 37.289 29.086 85.106 39.877 139.256 2.456 12.32 14.434 20.317 26.754 17.863 12.323-2.454 20.32-14.432 17.863-26.754-8.915-44.739-19.462-84.559-31.496-118.953 146.174 40.582 263.706 150.715 314.541 292.362-35.23-7.123-71.026-13.405-106.854-18.747-12.438-1.847-24.001 6.719-25.856 19.147-1.853 12.426 6.719 24.003 19.145 25.854 43.14 6.433 86.225 14.257 128.276 23.288 8.194 34.56 12.53 70.583 12.53 107.613 0 31.368-3.139 62.752-9.332 93.282-2.497 12.312 5.459 24.318 17.772 26.815 12.302 2.499 24.314-5.453 26.811-17.766z" />
<glyph unicode="&#xe907;" glyph-name="gymnasium" d="M512.027 767.999c-7.509 0-14.462 3.925-18.302 10.368l-64 106.667c-6.103 10.112-2.775 23.211 7.339 29.269 9.984 5.973 23.166 2.773 29.269-7.296l45.694-76.203 45.698 76.203c6.1 10.112 19.241 13.312 29.269 7.296 10.11-6.059 13.397-19.157 7.339-29.269l-64-106.667c-3.84-6.443-10.796-10.368-18.306-10.368zM512 704c-11.776 0-21.333 9.557-21.333 21.333v64c0 11.776 9.557 21.333 21.333 21.333s21.333-9.557 21.333-21.333v-64c0-11.776-9.557-21.333-21.333-21.333zM362.667 704h-85.333c-35.285 0-64 28.715-64 64v85.333c0 35.285 28.715 64 64 64h85.333c11.776 0 21.333-9.557 21.333-21.333s-9.557-21.333-21.333-21.333h-85.333c-11.733 0-21.333-9.557-21.333-21.333v-85.333c0-11.776 9.6-21.333 21.333-21.333h64v42.667h-21.333c-11.776 0-21.333 9.557-21.333 21.333s9.557 21.333 21.333 21.333h42.667c11.776 0 21.333-9.557 21.333-21.333v-85.333c0-11.776-9.557-21.333-21.333-21.333zM789.333 703.999c-11.776 0-21.333 9.557-21.333 21.333v106.667l-25.6-34.133c-8.066-10.752-26.068-10.752-34.174 0l-25.559 34.133v-106.667c0-11.776-9.557-21.333-21.333-21.333s-21.333 9.557-21.333 21.333v170.667c0 9.173 5.888 17.323 14.592 20.224 8.66 2.944 18.302-0.085 23.808-7.424l46.933-62.592 46.933 62.592c5.547 7.339 15.189 10.325 23.852 7.424 8.66-2.901 14.548-11.051 14.548-20.224v-170.667c0-11.776-9.557-21.333-21.333-21.333zM106.667-21.333c-11.776 0-21.333 9.557-21.333 21.333v682.667c0 11.776 9.557 21.333 21.333 21.333s21.333-9.557 21.333-21.333v-682.667c0-11.776-9.557-21.333-21.333-21.333zM917.333-21.333c-11.776 0-21.333 9.557-21.333 21.333v682.667c0 11.776 9.557 21.333 21.333 21.333s21.333-9.557 21.333-21.333v-682.667c0-11.776-9.557-21.333-21.333-21.333zM1002.667-21.333h-981.333c-11.776 0-21.333 9.557-21.333 21.333s9.557 21.333 21.333 21.333h981.333c11.776 0 21.333-9.557 21.333-21.333s-9.557-21.333-21.333-21.333zM1002.667 661.333h-981.333c-11.776 0-21.333 9.557-21.333 21.333s9.557 21.333 21.333 21.333h981.333c11.776 0 21.333-9.557 21.333-21.333s-9.557-21.333-21.333-21.333zM554.667 533.333h-85.333c-11.776 0-21.333 9.557-21.333 21.333s9.557 21.333 21.333 21.333h85.333c11.776 0 21.333-9.557 21.333-21.333s-9.557-21.333-21.333-21.333zM320 533.333h-85.333c-11.776 0-21.333 9.557-21.333 21.333s9.557 21.333 21.333 21.333h85.333c11.776 0 21.333-9.557 21.333-21.333s-9.557-21.333-21.333-21.333zM789.333 533.333h-85.333c-11.776 0-21.333 9.557-21.333 21.333s9.557 21.333 21.333 21.333h85.333c11.776 0 21.333-9.557 21.333-21.333s-9.557-21.333-21.333-21.333zM746.667-21.333c-11.776 0-21.333 9.557-21.333 21.333v384c0 11.776-9.598 21.333-21.333 21.333h-384c-11.733 0-21.333-9.557-21.333-21.333v-384c0-11.776-9.557-21.333-21.333-21.333s-21.333 9.557-21.333 21.333v384c0 35.287 28.715 64 64 64h384c35.284 0 64-28.713 64-64v-384c0-11.776-9.557-21.333-21.333-21.333zM512-21.333c-11.776 0-21.333 9.557-21.333 21.333v426.667c0 11.776 9.557 21.333 21.333 21.333s21.333-9.557 21.333-21.333v-426.667c0-11.776-9.557-21.333-21.333-21.333z" />
<glyph unicode="&#xe908;" glyph-name="kitchen" horiz-adv-x="1061" d="M1008.878 353.371h-993.638c-8.571 0-15.526 6.956-15.526 15.525v77.144c0 24.583 19.993 44.577 44.576 44.577h935.517c24.583 0 44.599-19.994 44.599-44.577v-77.144c0-8.569-6.956-15.525-15.528-15.525zM30.765 384.424h962.588v61.616c0 7.461-6.085 13.524-13.546 13.524h-935.517c-7.459 0-13.524-6.064-13.524-13.524v-61.616zM979.807-55.592h-935.517c-24.582 0-44.576 19.99-44.576 44.573v379.911c0 8.572 6.954 15.528 15.526 15.528h993.638c8.572 0 15.528-6.956 15.528-15.528v-379.911c0-24.583-20.016-44.573-44.599-44.573zM30.765 353.368v-364.387c0-7.461 6.065-13.524 13.524-13.524h935.517c7.461 0 13.546 6.064 13.546 13.524v364.387h-962.588zM690.154-55.581h-356.343c-8.571 0-15.526 6.952-15.526 15.525v254.051c0 19.101 15.546 34.648 34.67 34.648h318.072c19.105 0 34.651-15.547 34.651-34.648v-254.051c0-8.572-6.956-15.525-15.525-15.525zM349.337-24.532h325.289v238.526c0 1.979-1.616 3.599-3.599 3.599h-318.072c-2.002 0-3.619-1.62-3.619-3.599v-238.526zM594.589 6.228h-165.080c-13.122 0-23.793 10.672-23.793 23.793v88.686c0 13.118 10.672 23.793 23.793 23.793h165.080c13.118 0 23.793-10.675 23.793-23.793v-88.686c0-13.122-10.675-23.793-23.793-23.793zM436.765 37.277h150.565v74.171h-150.565v-74.171zM240.116 181.793h-132.392c-17.183 0-31.152 13.989-31.152 31.173v57.454c0 17.181 13.969 31.152 31.152 31.152h132.392c17.183 0 31.152-13.97 31.152-31.152v-57.454c0-17.185-13.969-31.173-31.152-31.173zM107.724 270.519l-0.101-57.552 132.493-0.121 0.101 57.574v0.040l-132.493 0.059zM240.116 15.62h-132.392c-17.183 0-31.152 13.989-31.152 31.173v57.454c0 17.181 13.969 31.152 31.152 31.152h132.392c17.183 0 31.152-13.97 31.152-31.152v-57.454c0-17.185-13.969-31.173-31.152-31.173zM107.724 104.346l-0.101-57.552 132.493-0.121 0.101 57.574v0.040l-132.493 0.059zM916.403 181.793h-132.392c-17.185 0-31.155 13.989-31.155 31.173v57.454c0 17.181 13.97 31.152 31.155 31.152h132.392c17.181 0 31.152-13.97 31.152-31.152v-57.454c0-17.185-13.97-31.173-31.152-31.173zM784.011 270.519l-0.102-57.552 132.495-0.121 0.099 57.574v0.040l-132.491 0.059zM916.403 15.62h-132.392c-17.185 0-31.155 13.989-31.155 31.173v57.454c0 17.181 13.97 31.152 31.155 31.152h132.392c17.181 0 31.152-13.97 31.152-31.152v-57.454c0-17.185-13.97-31.173-31.152-31.173zM784.011 104.346l-0.102-57.552 132.495-0.121 0.099 57.574v0.040l-132.491 0.059zM397.458 289.342h-17.931c-8.572 0-15.527 6.952-15.527 15.525s6.955 15.525 15.527 15.525h17.931c8.569 0 15.525-6.952 15.525-15.525s-6.956-15.525-15.525-15.525zM480.029 289.342h-17.931c-8.572 0-15.528 6.952-15.528 15.525s6.956 15.525 15.528 15.525h17.931c8.569 0 15.525-6.952 15.525-15.525s-6.956-15.525-15.525-15.525zM562.6 289.342h-17.931c-8.572 0-15.525 6.952-15.525 15.525s6.952 15.525 15.525 15.525h17.931c8.572 0 15.525-6.952 15.525-15.525s-6.952-15.525-15.525-15.525zM644.904 289.342h-17.949c-8.572 0-15.525 6.952-15.525 15.525s6.952 15.525 15.525 15.525h17.949c8.572 0 15.528-6.952 15.528-15.525s-6.956-15.525-15.528-15.525zM703.294 459.564h-382.338c-5.822 0-11.159 3.255-13.807 8.448-2.668 5.179-2.203 11.403 1.193 16.135l48.376 67.295c8.915 12.394 23.329 19.771 38.572 19.771h233.691c15.243 0 29.656-7.376 38.572-19.771l48.355-67.295c3.397-4.732 3.862-10.957 1.192-16.135-2.648-5.193-7.984-8.448-13.806-8.448zM351.239 490.613h321.774l-30.691 42.715c-3.072 4.268-8.064 6.835-13.341 6.835h-233.691c-5.277 0-10.269-2.567-13.341-6.835l-30.709-42.715zM965.007 459.524h-183.194c-8.572 0-15.528 6.956-15.528 15.528v36.871c0 22.48 18.275 40.755 40.755 40.755h132.718c22.477 0 40.773-18.275 40.773-40.755v-36.871c0-8.572-6.956-15.528-15.525-15.528zM797.338 490.576h152.141v21.347c0 5.358-4.367 9.702-9.721 9.702h-132.718c-5.358 0-9.702-4.345-9.702-9.702v-21.347zM242.74 459.524h-183.214c-8.571 0-15.526 6.956-15.526 15.528v36.871c0 22.48 18.295 40.755 40.775 40.755h132.716c22.48 0 40.775-18.275 40.775-40.755v-36.871c0-8.572-6.954-15.528-15.526-15.528zM75.051 490.576h152.163v21.347c0 5.358-4.367 9.702-9.724 9.702h-132.716c-5.357 0-9.724-4.345-9.724-9.702v-21.347zM531.043 163.021h-37.804c-8.569 0-15.525 6.952-15.525 15.525s6.956 15.525 15.525 15.525h37.804c8.572 0 15.525-6.952 15.525-15.525s-6.952-15.525-15.525-15.525zM585.933 754.51h-147.836c-8.572 0-15.525 6.954-15.525 15.526v166.011c0 8.571 6.952 15.526 15.525 15.526h147.836c8.572 0 15.528-6.954 15.528-15.526v-166.011c0-8.572-6.956-15.526-15.528-15.526zM453.621 785.561h116.787v134.96h-116.787v-134.96zM696.686 654.594h-369.078c-9.643 0-18.194 6.146-21.287 15.283-3.073 9.137 0 19.205 7.662 25.047l114.847 87.473c2.688 2.062 6.001 3.174 9.399 3.174h147.836c3.397 0 6.711-1.112 9.399-3.174l114.827-87.473c7.68-5.842 10.774-15.89 7.702-25.027-3.094-9.157-11.644-15.303-21.307-15.303zM353.059 685.646h318.173l-90.405 68.875h-137.362l-90.406-68.875z" />
<glyph unicode="&#xe909;" glyph-name="price-1" d="M359.086-34.178c19.141-19.097 45.075-29.822 72.113-29.822s52.972 10.725 72.111 29.822l482.565 482.569c10.313 10.078 18.312 22.279 23.442 35.757 5.128 13.478 7.261 27.909 6.254 42.295l-17.651 302.401c-1.047 18.982-7.369 37.296-18.254 52.882l37.26 37.259c2.237 2.226 4.015 4.872 5.23 7.786 1.213 2.914 1.841 6.039 1.845 9.196s-0.614 6.284-1.82 9.201c-1.206 2.918-2.975 5.568-5.209 7.801-2.232 2.232-4.882 4.002-7.8 5.209s-6.045 1.825-9.202 1.821c-3.157-0.004-6.281-0.631-9.197-1.845-2.914-1.214-5.561-2.991-7.786-5.229l-39.53-39.529c-12.097 6.243-25.31 10.026-38.877 11.131l-312.453 26.028c-14.786 1.431-29.704-0.478-43.651-5.587s-26.57-13.288-36.932-23.93l-481.735-481.715c-19.088-19.143-29.807-45.075-29.807-72.109s10.719-52.966 29.807-72.111l329.279-329.282zM63.747 405.392l481.735 481.718c4.851 5.057 10.686 9.070 17.143 11.793 6.459 2.723 13.405 4.1 20.412 4.046 1.677 0 3.375-0.071 5.099-0.214l312.455-26.038c1.843-0.152 3.646-0.412 5.425-0.738l-59.556-59.552c-19.332 11.12-42.046 14.839-63.915 10.465-21.867-4.374-41.404-16.544-54.971-34.244s-20.242-39.727-18.784-61.98c1.459-22.254 10.953-43.221 26.715-58.998 15.76-15.777 36.717-25.293 58.971-26.775 22.252-1.484 44.285 5.168 62 18.716 17.715 13.55 29.907 33.071 34.304 54.935s0.703 44.581-10.396 63.923l64.232 64.232c3.14-6.455 4.969-13.468 5.387-20.635l17.651-302.405c0.624-7.624-0.462-15.29-3.182-22.439s-7.006-13.6-12.539-18.878l-482.555-482.553c-10.132-10.109-23.861-15.785-38.172-15.785-14.313 0-28.040 5.676-38.174 15.785l-329.285 329.272c-10.087 10.143-15.749 23.865-15.749 38.17s5.662 28.029 15.749 38.172v0.008zM831.735 705.573c-6.146-6.148-13.979-10.335-22.507-12.031-8.526-1.696-17.365-0.825-25.397 2.502-8.034 3.325-14.898 8.961-19.728 16.189s-7.408 15.727-7.408 24.421c0 8.694 2.577 17.192 7.408 24.421 4.83 7.228 11.695 12.863 19.728 16.19s16.871 4.197 25.397 2.501c8.528-1.696 16.361-5.883 22.507-12.030 8.235-8.249 12.86-19.428 12.86-31.082s-4.625-22.833-12.86-31.081zM314.47 226.489c3.153-0.004 6.275 0.616 9.187 1.822 2.914 1.208 5.559 2.977 7.784 5.209l22.999 22.997c22.526-14.732 49.436-21.262 76.209-18.492 26.773 2.769 51.776 14.67 70.809 33.701 19.033 19.033 30.933 44.036 33.703 70.807 2.771 26.773-3.76 53.683-18.492 76.207l96.579 96.577c5.897-12.85 7.721-27.198 5.226-41.115s-9.185-26.736-19.178-36.738c-4.48-4.506-6.992-10.603-6.983-16.956 0.008-6.355 2.537-12.444 7.029-16.937s10.584-7.021 16.937-7.029c6.355-0.008 12.452 2.502 16.958 6.983 19.027 19.033 30.927 44.032 33.699 70.801 2.774 26.771-3.75 53.679-18.473 76.207l22.999 22.997c2.228 2.228 3.996 4.875 5.201 7.786 1.208 2.912 1.828 6.032 1.828 9.183s-0.62 6.273-1.828 9.185c-1.206 2.912-2.973 5.557-5.201 7.786-2.23 2.228-4.875 3.996-7.786 5.201s-6.034 1.828-9.185 1.828c-3.151 0-6.272-0.622-9.183-1.828s-5.559-2.973-7.786-5.201l-23.011-23.013c-22.526 14.72-49.43 21.241-76.195 18.467s-51.76-14.672-70.787-33.699-30.929-44.022-33.703-70.785c-2.773-26.765 3.748-53.669 18.469-76.193l-96.559-96.557c-5.893 12.846-7.715 27.186-5.226 41.099 2.49 13.911 9.175 26.73 19.157 36.735 2.239 2.228 4.015 4.873 5.23 7.788 1.213 2.914 1.841 6.038 1.845 9.195s-0.614 6.285-1.82 9.202c-1.208 2.917-2.977 5.568-5.209 7.8s-4.884 4.003-7.802 5.209-6.045 1.824-9.202 1.82c-3.157-0.004-6.281-0.632-9.197-1.845-2.914-1.215-5.559-2.993-7.786-5.23-18.996-19.048-30.873-44.044-33.643-70.801-2.769-26.757 3.737-53.656 18.428-76.189l-23.011-23.011c-3.356-3.356-5.642-7.632-6.569-12.288-0.925-4.654-0.45-9.481 1.366-13.867 1.816-4.384 4.892-8.132 8.839-10.769s8.586-4.046 13.333-4.046l0.002-0.002zM467.514 305.685c-10.002-9.993-22.824-16.685-36.742-19.18-13.917-2.492-28.264-0.668-41.115 5.23l91.797 91.783c5.891-12.846 7.713-27.188 5.22-41.099-2.49-13.913-9.177-26.73-19.16-36.735zM501.453 535.309c10.006 9.983 22.824 16.666 36.736 19.157 13.913 2.489 28.253 0.667 41.099-5.226l-91.768-91.764c-5.891 12.846-7.713 27.186-5.224 41.099 2.49 13.911 9.175 26.73 19.157 36.735z" />
<glyph unicode="&#xe90a;" glyph-name="quote-1" horiz-adv-x="1365" d="M1038.78 960c180.306 0 326.474-146.167 326.474-326.474 0-133.177-69.33-262.036-172.803-286.899-39.913-9.591-71.7-60.811-64.87-119.285 9.142-78.262 79.918-157.335 220.052-219.645 31.201-13.875 18.136-60.811-15.747-56.567-365.21 45.722-618.362 283.816-619.577 620.672-0.003 231.666 136.866 388.198 326.471 388.198zM326.468 960c180.306 0 326.474-146.167 326.474-326.474 0-133.177-69.328-262.036-172.8-286.899-39.913-9.591-71.7-60.811-64.87-119.285 9.142-78.262 79.918-157.335 220.052-219.645 31.201-13.875 18.136-60.811-15.747-56.567-365.21 45.722-618.362 283.816-619.577 620.672-0.004 231.666 136.865 388.198 326.468 388.198z" />
<glyph unicode="&#xe90b;" glyph-name="quote-2" horiz-adv-x="1365" d="M1038.78 960c180.306 0 326.474-146.167 326.474-326.474 0-133.177-69.33-262.036-172.803-286.899-39.913-9.591-71.7-60.811-64.87-119.285 9.142-78.262 79.918-157.335 220.052-219.645 31.201-13.875 18.136-60.811-15.747-56.567-365.21 45.722-618.362 283.816-619.577 620.672-0.003 231.666 136.866 388.198 326.471 388.198zM326.468 960c180.306 0 326.474-146.167 326.474-326.474 0-133.177-69.328-262.036-172.8-286.899-39.913-9.591-71.7-60.811-64.87-119.285 9.142-78.262 79.918-157.335 220.052-219.645 31.201-13.875 18.136-60.811-15.747-56.567-365.21 45.722-618.362 283.816-619.577 620.672-0.004 231.666 136.865 388.198 326.468 388.198z" />
<glyph unicode="&#xe90c;" glyph-name="ship-1" horiz-adv-x="1536" d="M1510.32 243.24c-69.899 1.641-138.745-17.266-198.004-54.372-11.237-6.195-22.321-12.315-33.97-17.92l245.364 294.999c12.998 15.197 15.959 36.575 7.578 54.733s-26.568 29.774-46.568 29.743h-222.070l-269.784 196.214-13.056 26.084c-25.869 52.158-79.142 85.075-137.361 84.886h-263.462l-25.598 51.198h137.775c14.138 0 25.596 11.462 25.596 25.598s-11.458 25.598-25.596 25.598h-281.587c-14.138 0-25.598-11.459-25.598-25.598s11.46-25.598 25.598-25.598h86.575l25.598-51.198h-112.173c-42.411 0-76.796-34.381-76.796-76.796s34.38-76.795 76.796-76.795h35.377l-76.796-153.593h-22.577c-16.106-0.033-31.268-7.613-40.958-20.48l-61.436-81.916h-44.032c-8.72 0.002-16.844-4.434-21.554-11.776l-124.511-193.986c-8.832 0.512-17.741 0.971-27.494 0.971-14.138 0-25.598-11.46-25.598-25.598s11.459-25.598 25.598-25.598c61.212 1.474 121.488-15.238 173.202-48.023 59.246-37.118 128.088-56.022 197.981-54.372 54.777-1.587 109.141 9.975 158.533 33.712l0.358 0.18c13.644 6.578 26.395 13.568 38.988 20.48 51.681 32.77 111.921 49.481 173.096 48.023 61.235 1.48 121.538-15.233 173.276-48.023 59.29-37.127 128.176-56.031 198.106-54.372 69.899-1.641 138.748 17.263 198.006 54.372 51.71 32.77 111.972 49.479 173.174 48.023 14.138 0 25.598 11.46 25.598 25.598s-11.455 25.602-25.596 25.602zM964.428 704.016l70.398-51.2h-292.463c-14.138 0-25.598 11.46-25.598 25.598v25.598l247.663 0.004zM409.578 755.21c-14.138 0-25.598 11.459-25.598 25.598s11.46 25.598 25.598 25.598h432.874c36.523 0.063 70.271-19.484 88.393-51.198l-521.267 0.003zM502.194 704.016h163.373v-25.598c0-42.414 34.38-76.798 76.796-76.798h362.861l70.396-51.198h-750.22l76.796 153.593zM345.582 499.224h524.771v-25.598c0-14.138-11.46-25.598-25.598-25.598h-537.571l38.398 51.196zM1139.138 140.842c-61.271-1.5-121.609 15.215-173.379 48.026-59.258 37.107-128.105 56.008-198.004 54.372-69.859 1.636-138.665-17.268-197.879-54.372-51.679-32.777-111.917-49.493-173.096-48.026-61.222-1.476-121.507 15.235-173.225 48.026-35.375 21.366-73.947 36.924-114.247 46.076l103.828 161.888h631.62c42.411 0 76.796 34.382 76.796 76.796v25.598h76.796v-76.796c0-14.138 11.462-25.598 25.598-25.598s25.598 11.46 25.598 25.598v76.796h51.198v-76.796c0-14.138 11.46-25.598 25.598-25.598s25.598 11.46 25.598 25.598v76.796h51.198v-76.796c0-14.138 11.46-25.598 25.598-25.598 14.14 0 25.598 11.46 25.598 25.598v76.642h230.157l-294.974-354.95c-16.698-2.204-33.527-3.299-50.374-3.279zM1510.32 89.647c-69.899 1.641-138.745-17.263-198.004-54.372-51.712-32.77-111.972-49.479-173.174-48.023-61.237-1.48-121.54 15.233-173.279 48.023-59.287 37.127-128.174 56.031-198.106 54.372-69.859 1.638-138.663-17.268-197.877-54.372-51.679-32.777-111.919-49.49-173.098-48.023-61.22-1.476-121.504 15.235-173.225 48.023-59.238 37.111-128.069 56.019-197.954 54.372-14.138 0-25.598-11.46-25.598-25.598s11.459-25.598 25.598-25.598c61.212 1.474 121.488-15.24 173.202-48.023 59.247-37.118 128.087-56.022 197.981-54.372 69.861-1.645 138.67 17.27 197.877 54.394 51.685 32.761 111.921 49.466 173.098 47.999 61.235 1.478 121.538-15.233 173.276-48.026 59.287-37.124 128.174-56.031 198.106-54.372 69.899-1.641 138.745 17.266 198.004 54.372 51.712 32.77 111.972 49.479 173.176 48.026 14.138 0 25.598 11.46 25.598 25.598s-11.464 25.6-25.602 25.6z" />
<glyph unicode="&#xe90d;" glyph-name="ship-2" horiz-adv-x="1695" d="M201.446 194.595c2.094 0 4.13-0.24 6.212-0.307-33.835 47.736-46.713 111.708-51.56 152.505h1380.775c-15.279-50.536-56.249-112.28-112.679-164.818 21.32 8.171 44.131 12.631 67.715 12.631 16.317 0 32.221-2.263 47.581-6.225 52.288 66.613 83.654 138.914 83.654 198.243 0 21.991-17.828 39.819-39.819 39.819h-28.679c-55.748 140.030-241.205 371.117-532.134 447.058l-59.24 71.982c-7.567 9.193-18.842 14.517-30.741 14.517h-151.121c-21.991 0-39.819-17.828-39.819-39.819s17.828-39.819 39.819-39.819h132.315l48.001-58.318c4.276-50.946-6.67-159.243-93.954-213.989-3.753 42.584-39.569 76.112-83.106 76.112h-171.884c-28.1 0-55.907 9.375-78.272 26.406-32.221 24.529-72.256 38.033-112.735 38.033h-83.097c-46.031 0-83.484-37.453-83.484-83.473v-68.261c-58.739-8.181-104.144-58.615-104.144-119.571v-50.857h-37.703c-21.992 0-39.819-17.828-39.819-39.819 0-6.038 0.808-115.952 50.844-208.515 23.971 10.727 50.047 16.486 77.079 16.486zM312.075 665.132c0 14.665 11.935 26.588 26.599 26.588h83.097c28.114 0 55.907-9.386 78.272-26.417 32.221-24.529 72.256-38.033 112.735-38.033h171.894c14.664 0 26.589-11.934 26.589-26.599v-2.525h-499.187v66.986zM230.685 477.286c0 22.733 18.488 41.232 41.23 41.232h587.027c5.494 0 10.957 1.148 15.985 3.354 118.798 52.097 162.35 170.041 166.968 263.070 211.565-69.479 364.848-235.186 425.656-358.5h-1236.866v50.843zM1683.643 38.693l-76.405 78.682c-30.536 31.447-71.493 48.764-115.331 48.764-43.834 0-84.791-17.316-115.327-48.764l-41.56-42.8c-15.402-15.868-36.077-24.597-58.181-24.597-22.118 0-42.789 8.739-58.195 24.597l-41.557 42.8c-30.536 31.447-71.493 48.764-115.331 48.764-43.834 0-84.791-17.316-115.327-48.764l-41.56-42.8c-15.402-15.868-36.077-24.597-58.181-24.597-22.118 0-42.789 8.739-58.195 24.597l-41.557 42.8c-30.536 31.447-71.493 48.764-115.331 48.764-43.834 0-84.791-17.316-115.317-48.764l-41.56-42.8c-15.402-15.868-36.077-24.597-58.191-24.597-22.118 0-42.789 8.739-58.195 24.597l-41.559 42.8c-30.536 31.447-71.493 48.764-115.328 48.764s-84.792-17.316-115.612-49.057l-74.872-78.686c-15.165-15.925-14.528-41.137 1.399-56.292 15.939-15.187 41.15-14.541 56.293 1.388l74.587 78.4c15.404 15.883 36.065 24.608 58.193 24.608 22.117 0 42.777-8.739 58.193-24.608l41.56-42.8c30.536-31.447 71.491-48.753 115.329-48.753 43.834 0 84.78 17.306 115.317 48.753l41.571 42.8c15.402 15.883 36.066 24.608 58.181 24.608 22.118 0 42.789-8.739 58.191-24.608l41.56-42.8c30.536-31.447 71.482-48.753 115.331-48.753 43.824 0 84.78 17.306 115.317 48.753l41.56 42.8c15.402 15.883 36.077 24.608 58.191 24.608 22.118 0 42.789-8.739 58.195-24.608l41.557-42.8c30.536-31.447 71.482-48.753 115.331-48.753 43.824 0 84.78 17.306 115.317 48.753l41.56 42.8c15.402 15.883 36.077 24.608 58.191 24.608 22.118 0 42.789-8.739 58.195-24.608l76.405-78.686c15.325-15.791 40.515-16.13 56.306-0.819 15.791 15.328 16.165 40.526 0.84 56.306z" />
<glyph unicode="&#xe90e;" glyph-name="down" d="M512 277.333c-0.073 0-0.16-0.001-0.247-0.001-11.721 0-22.338 4.726-30.049 12.377l-255.997 255.997c-7.753 7.753-12.548 18.463-12.548 30.293 0 23.661 19.181 42.841 42.841 42.841 11.83 0 22.541-4.795 30.293-12.548v0l225.707-226.133 225.707 225.707c7.412 6.377 17.129 10.259 27.753 10.259 23.564 0 42.667-19.103 42.667-42.667 0-10.624-3.883-20.341-10.307-27.809l0.047 0.056-256-256c-7.667-7.606-18.211-12.323-29.857-12.373h-0.010z" />
<glyph unicode="&#xe90f;" glyph-name="swimming-pool" d="M833.393 960c-87.501 0-158.45-70.947-158.45-158.448v-83.954h-376.018v83.954c0 63.852 52.027 115.88 115.881 115.88s115.879-52.028 115.879-115.88c0-11.824 9.458-21.284 21.286-21.284 11.824 0 21.282 9.46 21.282 21.284 0 87.501-70.946 158.448-158.447 158.448-87.502 0-158.449-70.947-158.449-158.448v-538.015c-1.182-11.824 9.46-22.467 21.284-22.467s21.284 9.462 21.284 21.286v53.21h377.202v-53.21c0-11.824 9.458-21.286 21.282-21.286 11.827 0 21.286 9.462 21.286 21.286v539.196c0 63.852 52.026 115.88 115.879 115.88s114.698-52.028 114.698-115.88c0-11.824 9.458-21.284 21.282-21.284 11.827 0 21.286 9.46 21.286 21.284 0 87.501-70.946 158.448-158.447 158.448zM676.127 360.499h-377.202v75.677h377.202v-75.677zM676.127 478.744h-377.202v75.677h377.202v-75.677zM676.127 599.354h-377.202v75.676h377.202v-75.676zM938.557 158.317c-4.731 10.643-17.736 16.555-28.378 10.643-106.421-46.118-158.45-23.651-214.023 0-56.757 23.648-114.698 48.48-217.573 0-106.417-46.118-158.447-23.651-214.022 0-56.758 23.648-115.88 48.48-218.753 0-10.642-4.731-15.372-17.739-10.642-28.378 4.73-10.643 17.737-15.374 28.378-10.643 86.319 40.202 131.252 21.282 183.28-1.184 34.291-14.189 70.947-29.559 119.426-29.559 35.475 0 76.861 8.277 128.887 30.744 86.32 40.202 131.253 21.282 183.279-1.184 34.294-14.189 70.95-29.559 119.429-29.559 35.471 0 76.858 8.277 128.887 30.744 10.639 4.727 16.555 17.736 11.824 28.378zM937.223-4.884c-4.727 10.643-17.736 16.555-28.378 10.643-106.421-46.114-158.447-23.648-214.023 0-56.757 23.651-114.698 48.48-217.569 0-106.421-46.114-158.449-23.648-214.024 0-56.758 23.651-114.698 48.48-218.753 0-10.642-4.731-15.372-17.736-10.642-28.378 5.912-10.643 18.919-15.37 29.561-10.643 86.319 40.206 131.252 21.286 183.28-1.181 34.291-14.189 70.947-29.563 119.426-29.563 35.475 0 76.861 8.277 128.887 30.744 86.32 40.206 131.253 21.286 183.279-1.181 34.29-14.189 70.946-29.563 119.429-29.563 35.471 0 76.858 8.277 128.884 30.744 10.643 4.731 16.555 17.739 10.643 28.378z" />
<glyph unicode="&#xe910;" glyph-name="prev" d="M55.168 417.835l298.667-298.667c7.665-7.41 18.12-11.977 29.641-11.977 23.564 0 42.667 19.103 42.667 42.667 0 11.521-4.567 21.976-11.989 29.653l-225.823 225.823h750.336c23.564 0 42.667 19.103 42.667 42.667s-19.103 42.667-42.667 42.667v0h-750.336l225.835 225.835c8.036 7.769 13.026 18.647 13.026 30.69 0 23.564-19.103 42.667-42.667 42.667-12.043 0-22.92-4.989-30.678-13.014l-298.679-298.679c-7.718-7.721-12.492-18.386-12.492-30.165s4.774-22.445 12.492-30.165v0z" />
<glyph unicode="&#xe911;" glyph-name="water-surfing" d="M119.875 960c-66.099 0-119.875-53.776-119.875-119.873s53.775-119.873 119.873-119.873 119.873 53.776 119.873 119.873c0.002 66.097-53.772 119.873-119.871 119.873zM119.875 780.188c-33.048 0-59.937 26.888-59.937 59.937s26.888 59.937 59.937 59.937c33.048 0 59.937-26.888 59.937-59.937s-26.888-59.937-59.937-59.937zM980.006 42.628c-11.868-5.691-23.291-12.789-33.948-21.1-43.418-33.867-99.527-33.867-142.948 0-65.396 51.009-153.277 51.009-218.673 0-43.348-33.814-101.597-33.814-144.942 0-32.030 24.98-69.492 38.187-108.339 38.187-38.85 0-76.311-13.204-108.34-38.187-38.862-30.313-87.887-33.471-128.887-9.518l586.317 145.669c59.486 14.87 109.334 54.854 136.75 109.697l22.954 45.905c7.4 14.805 1.401 32.806-13.404 40.208-14.802 7.402-32.803 1.401-40.205-13.401l-22.954-45.908c-19.588-39.173-55.191-67.732-97.638-78.344l-280.638-69.724c1.533 14.7-0.509 29.941-6.661 44.39l-34.371 133.858c-4.131 16.077-12.614 30.68-24.538 42.224l-97.121 94.044-18.384 79.829h185.557c39.066 0 72.378 25.058 84.749 59.936h518.616c16.548 0 29.968 13.42 29.968 29.968 0 16.551-13.42 29.971-29.968 29.971h-518.616c-12.372 34.879-45.684 59.935-84.752 59.935h-298.498c-56.767 0-99.269-51.986-88.177-107.43l41.956-213.782c3.592-17.969 12.452-34.21 25.618-46.956l118.131-114.386 23.43-113.791c1.242-6.036 5.69-13.74 8.918-18.594l-198.226-49.249c-15.322-3.805-24.902-18.774-22.292-34.088-2.226-13.105 4.49-26.565 17.168-32.302 8.852-4.004 17.396-9.194 25.386-15.427 32.028-24.983 69.491-38.19 108.339-38.19 38.844 0 76.309 13.204 108.339 38.19 43.416 33.865 99.526 33.867 142.946 0 65.482-51.076 153.357-50.944 218.673 0 43.35 33.811 101.597 33.811 144.947 0 65.194-50.852 151.231-51.046 216.67-0.003 7.268 5.667 15.004 10.483 23 14.317 14.923 7.155 21.224 25.053 14.067 39.976-7.157 14.926-25.050 21.229-39.979 14.072zM112.184 395.162c-4.39 4.247-7.34 9.658-8.516 15.543l-41.956 213.782c-3.716 18.561 10.488 35.845 29.38 35.845h298.5c16.524 0 29.968-13.444 29.968-29.968s-13.444-29.968-29.968-29.968h-223.214c-19.252 0-33.524-17.933-29.204-36.697l28.828-125.162c1.298-5.637 4.202-10.776 8.358-14.802l103.489-100.212c3.975-3.848 6.802-8.715 8.181-14.075 37.764-147.090 35.174-137.887 36.856-141.49 6.982-14.977 0.482-32.843-14.498-39.828-14.344-6.688-30.86-1-38.462 11.908l-24.464 118.814c-1.214 5.901-4.18 11.296-8.506 15.487l-124.773 120.824z" />
<glyph unicode="&#xe912;" glyph-name="water-toys" d="M254.2 212.321c-3.52 0-7.2 1.28-10.24 3.679-40.96 33.92-61.76 82.88-61.76 145.92 0 1.121 1.6 107.84 133.76 130.081-17.121 33.759-44.321 101.12-26.721 163.999 11.52 41.121 40 72.961 84.48 94.561 65.121 31.68 155.52 14.4 206.080-39.2 45.44-48.321 48.96-116.161 9.6-186.399l-23.040-41.6h296.801c4.639 0 8.96-1.92 11.999-5.44 3.041-3.361 4.48-8 3.84-12.641-0.64-4.48-14.4-110.559-83.84-194.88-5.599-6.879-15.68-7.839-22.559-2.24-6.881 5.601-7.841 15.68-2.24 22.561 47.199 57.439 66.56 128 73.439 160.64h-304.64c-5.599 0-10.88 3.039-13.76 7.839-2.88 4.961-2.88 10.88-0.159 15.841l36.16 65.28c32.64 58.079 30.879 111.040-4.961 148.959-40.799 43.201-116.48 57.761-168.799 32.321-36.001-17.44-58.721-42.561-67.681-74.399-20.319-72.32 34.401-158.881 34.88-159.68 3.041-4.8 3.361-10.721 0.801-15.68-2.56-4.961-7.521-8.481-13.12-8.801-126.080-10.24-128.64-97.6-128.64-101.279 0-52.8 16.8-93.601 50.079-121.121 6.881-5.599 7.841-15.68 2.081-22.559-2.721-3.681-7.201-5.76-11.84-5.76zM272.131 569.92c-40.96 0-74.24 10.721-99.040 32-39.68 33.92-42.080 82.081-42.080 84.001-0.16 4.319 1.44 8.479 4.48 11.679s7.2 4.961 11.52 4.961l174.881 1.28c8.799 0 16-7.040 16-15.841 0-8.799-7.040-16-15.841-16.159l-155.68-1.121c3.68-12.8 11.52-30.72 28.16-44.8 23.84-20.16 59.2-27.679 105.281-22.239 8.799 1.119 16.64-5.281 17.759-14.080 0.96-8.801-5.279-16.64-14.080-17.761-11.039-1.28-21.44-1.92-31.36-1.92zM966.060 145.28c-50.719 0-77.12 19.52-100.48 36.641-22.080 16.32-41.28 30.4-81.439 30.4-40.161 0-59.361-14.080-81.441-30.4-23.36-17.28-49.759-36.641-100.48-36.641-50.719 0-77.12 19.52-100.319 36.641-22.080 16.32-41.121 30.4-81.28 30.4-40.161 0-59.2-14.080-81.441-30.4-23.36-17.28-49.759-36.641-100.479-36.641s-77.12 19.52-100.32 36.641c-22.080 16.32-41.12 30.4-81.28 30.4-8.8 0-16 7.199-16 16 0 8.799 7.2 16 16 16 50.72 0 77.12-19.52 100.32-36.641 22.080-16.32 41.12-30.4 81.28-30.4s59.199 14.080 81.441 30.4c23.36 17.28 49.759 36.641 100.48 36.641 50.719 0 77.12-19.52 100.319-36.641 22.080-16.32 41.28-30.4 81.441-30.4 40.159 0 59.359 14.080 81.439 30.4 23.36 17.28 49.761 36.641 100.48 36.641 50.721 0 77.12-19.52 100.48-36.641 22.080-16.32 41.28-30.4 81.441-30.4 8.799 0 16-7.199 16-16 0-8.799-7.36-16-16.161-16zM966.92 36.477c-50.719 0-77.12 19.523-100.48 36.641-22.080 16.32-41.28 30.4-81.439 30.4-40.161 0-59.361-14.080-81.441-30.4-23.36-17.28-49.759-36.641-100.48-36.641-50.719 0-77.12 19.523-100.319 36.641-22.080 16.32-41.28 30.4-81.441 30.4-40.159 0-59.2-14.080-81.439-30.4-23.36-17.28-49.761-36.641-100.481-36.641s-77.12 19.523-100.32 36.641c-22.080 16.32-41.12 30.4-81.28 30.4-8.8 0-16 7.201-16 16 0 8.801 7.2 16 16 16 50.72 0 77.12-19.52 100.32-36.639 22.080-16.32 41.12-30.403 81.28-30.403s59.201 14.083 81.44 30.403c23.36 17.28 49.761 36.639 100.48 36.639 50.721 0 77.12-19.52 100.321-36.639 22.080-16.32 41.119-30.403 81.28-30.403 40.159 0 59.359 14.083 81.439 30.403 23.36 17.28 49.761 36.639 100.48 36.639 50.721 0 77.12-19.52 100.48-36.639 22.080-16.32 41.28-30.403 81.441-30.403 8.799 0 16-7.199 16-16 0-8.799-6.881-16-15.841-16zM415.24 648.479h-26.24c-8.799 0-16 7.201-16 16 0 8.801 7.201 16 16 16h26.24c8.801 0 16-7.199 16-16 0-8.799-7.199-16-16-16zM771.799 555.041c-50.719 0-91.999 41.28-91.999 91.999 0 50.721 41.28 92.001 91.999 92.001 50.721 0 92.001-41.279 92.001-92.001 0-50.719-41.28-91.999-92.001-91.999zM771.799 706.881c-32.96 0-59.999-26.881-59.999-59.999 0-33.121 26.88-60.001 59.999-60.001 33.121 0 60.001 26.88 60.001 60.001 0 33.119-26.88 59.999-60.001 59.999zM102.394 445.921c-18.080 0-36 8-48.16 23.199-10.24 12.8-14.72 28.8-12.8 45.12s9.92 30.881 22.88 40.96c12.8 10.24 28.96 14.72 45.12 12.8 16.32-1.92 30.88-9.92 40.96-22.879 20.96-26.56 16.48-65.121-9.92-86.241-11.2-8.64-24.64-12.959-38.080-12.959zM102.394 536.64c-6.56 0-12.96-2.24-18.24-6.4-6.080-4.8-10.080-11.84-10.88-19.679-0.96-7.841 1.28-15.521 6.080-21.601 10.080-12.639 28.48-14.879 41.28-4.8 12.64 10.081 14.88 28.641 4.8 41.28-4.8 6.080-11.84 10.081-19.68 10.88-1.12 0.161-2.24 0.32-3.36 0.32zM540.933 760.8c-17.759 0-34.88 9.6-43.679 26.24-12.8 24-3.52 54.080 20.639 66.72 24.161 12.8 54.080 3.52 66.721-20.64 12.8-24 3.52-54.080-20.641-66.72-7.36-3.68-15.36-5.6-23.040-5.6zM540.774 827.52c-2.721 0-5.44-0.64-8.161-2.080-8.479-4.48-11.679-15.040-7.199-23.52s15.040-11.68 23.519-7.2c8.481 4.48 11.681 15.040 7.201 23.52-3.041 5.92-9.121 9.28-15.36 9.28z" />
<glyph unicode="&#xe913;" glyph-name="next" d="M968.832 478.165l-298.667 298.667c-7.665 7.41-18.12 11.977-29.641 11.977-23.564 0-42.667-19.103-42.667-42.667 0-11.521 4.567-21.976 11.989-29.653l225.823-225.823h-750.336c-23.564 0-42.667-19.103-42.667-42.667s19.103-42.667 42.667-42.667v0h750.336l-225.835-225.835c-8.036-7.769-13.026-18.647-13.026-30.69 0-23.564 19.103-42.667 42.667-42.667 12.043 0 22.92 4.989 30.678 13.014l298.679 298.679c7.718 7.721 12.492 18.386 12.492 30.165s-4.774 22.445-12.492 30.165v0z" />
<glyph unicode="&#xe914;" glyph-name="thin-arrow-left" d="M494.933 806.042c6.178 0.119 12.407-1.382 17.903-4.779 15.855-9.762 20.685-30.959 11.145-46.797-0.802-1.399-100.454-167.697-290.679-272.35h739.499c18.825 0 34.133-15.309 34.133-34.133s-15.309-34.133-34.133-34.133h-739.499c189.167-104.055 289.946-271.087 290.935-272.759 9.335-15.94 4.164-37.154-11.759-46.592-16.145-9.574-37.41-4.028-47.053 12.203-15.514 24.747-160.99 246.596-421.922 307.985-15.616 3.84-26.436 17.51-26.436 33.314s10.752 29.508 26.146 33.246c262.042 61.611 407.023 283.75 422.69 308.89 6.144 9.847 17.493 15.684 29.013 15.906z" />
<glyph unicode="&#xe915;" glyph-name="thin-arrow" d="M529.067 89.958c-6.178-0.119-12.407 1.382-17.903 4.779-15.855 9.762-20.685 30.959-11.145 46.797 0.802 1.399 100.454 167.697 290.679 272.35h-739.499c-18.825 0-34.133 15.309-34.133 34.133s15.309 34.133 34.133 34.133h739.499c-189.167 104.055-289.946 271.087-290.935 272.759-9.335 15.94-4.164 37.154 11.759 46.592 16.145 9.574 37.41 4.028 47.053-12.203 15.514-24.747 160.99-246.596 421.922-307.985 15.616-3.84 26.436-17.51 26.436-33.314s-10.752-29.508-26.146-33.246c-262.042-61.611-407.023-283.75-422.69-308.89-6.144-9.847-17.493-15.684-29.013-15.906z" />
<glyph unicode="&#xe916;" glyph-name="tag" d="M913.763 959.999h-388.616c-7.953 0-15.586-3.164-21.211-8.789l-471.71-471.694c-42.969-42.984-42.969-112.914 0-155.882l355.397-355.39c20.75-20.75 48.43-32.18 77.929-32.187h0.008c29.508 0 57.187 11.437 77.945 32.195l471.694 471.702c5.625 5.625 8.789 13.258 8.789 21.211l0.008 388.616c-0.008 60.773-49.461 110.218-110.234 110.218zM963.989 473.586l-462.913-462.913c-9.422-9.43-22.039-14.617-35.516-14.617-13.484 0-26.094 5.187-35.516 14.609l-355.397 355.39c-19.578 19.578-19.578 51.453 0 71.039l462.921 462.905h376.194c27.695 0 50.234-22.531 50.234-50.226zM759.568 789.843c-25.18 0-48.851-9.812-66.656-27.617-17.805-17.797-27.609-41.469-27.609-66.648s9.805-48.851 27.609-66.656c17.805-17.805 41.476-27.609 66.656-27.609 25.172 0 48.844 9.805 66.648 27.609s27.609 41.476 27.609 66.656c0 25.18-9.805 48.851-27.601 66.648-17.805 17.805-41.476 27.617-66.656 27.617zM783.795 671.351c-6.469-6.477-15.078-10.039-24.226-10.039-9.156 0-17.758 3.562-24.226 10.039-6.477 6.469-10.039 15.078-10.039 24.226s3.562 17.758 10.039 24.226c6.469 6.477 15.078 10.039 24.226 10.039s17.75-3.562 24.226-10.039c6.477-6.469 10.039-15.078 10.039-24.226s-3.57-17.758-10.039-24.226z" />
<glyph unicode="&#xe917;" glyph-name="calendar" d="M892 880h-92v48c0 17.672-14.326 32-32 32s-32-14.328-32-32v-48h-448v48c0 17.672-14.326 32-32 32s-32-14.328-32-32v-48h-92c-72.786 0-132-59.214-132-132v-680c0-72.786 59.214-132 132-132h760c72.786 0 132 59.214 132 132v680c0 72.786-59.214 132-132 132zM132 816h92v-32c0-17.672 14.326-32 32-32s32 14.328 32 32v32h448v-32c0-17.672 14.326-32 32-32s32 14.328 32 32v32h92c37.496 0 68-30.504 68-68v-76h-896v76c0 37.496 30.504 68 68 68zM892 0h-760c-37.496 0-68 30.504-68 68v540h896v-540c0-37.496-30.504-68-68-68z" />
<glyph unicode="&#xe918;" glyph-name="people" d="M934.4 337.067l-34.133 89.6c-25.6 64-89.6 106.667-157.867 106.667h-29.867c-68.267 0-132.267-42.667-157.867-106.667l-21.333-51.2c-34.133 17.067-68.267 29.867-106.667 29.867h-81.067c-89.6 0-166.4-51.2-196.267-132.267l-59.733-149.333c-8.533-21.333 0-46.933 25.6-55.467s46.933 0 55.467 25.6l59.733 149.333c17.067 46.933 64 76.8 115.2 76.8h76.8c51.2 0 98.133-29.867 119.467-81.067l59.733-149.333c8.533-17.067 21.333-25.6 38.4-25.6 4.267 0 8.533 0 17.067 4.267 21.333 8.533 34.133 34.133 25.6 55.467l-59.733 149.333c-4.267 12.8-12.8 29.867-21.333 42.667l34.133 81.067c12.8 34.133 42.667 55.467 81.067 55.467h29.867c34.133 0 68.267-21.333 81.067-55.467l34.133-89.6c8.533-17.067 21.333-25.6 38.4-25.6 4.267 0 8.533 0 17.067 4.267 17.067 4.267 25.6 29.867 17.067 51.2zM384 448c93.867 0 170.667 76.8 170.667 170.667s-76.8 170.667-170.667 170.667-170.667-76.8-170.667-170.667 76.8-170.667 170.667-170.667zM384 704c46.933 0 85.333-38.4 85.333-85.333s-38.4-85.333-85.333-85.333-85.333 38.4-85.333 85.333 38.4 85.333 85.333 85.333zM725.333 576c72.533 0 128 55.467 128 128s-55.467 128-128 128-128-55.467-128-128 55.467-128 128-128zM725.333 746.667c25.6 0 42.667-17.067 42.667-42.667s-17.067-42.667-42.667-42.667-42.667 17.067-42.667 42.667 17.067 42.667 42.667 42.667z" />
<glyph unicode="&#xe919;" glyph-name="play-button-arrowhead" d="M217.828 937.422c-92.319 52.956-167.166 9.574-167.166-96.819v-785.131c0-106.499 74.847-149.825 167.166-96.919l686.243 393.556c92.351 52.974 92.351 138.801 0 191.763l-686.243 393.55z" />
<glyph unicode="&#xe91a;" glyph-name="star" d="M957.152 520l-199.328-194.304 47.072-274.432c2.048-12-2.88-24.128-12.736-31.296-5.568-4.064-12.192-6.112-18.816-6.112-5.088 0-10.208 1.216-14.88 3.68l-246.464 129.568-246.432-129.536c-10.752-5.696-23.84-4.768-33.696 2.432-9.856 7.168-14.784 19.296-12.736 31.296l47.072 274.432-199.36 194.272c-8.704 8.512-11.872 21.248-8.096 32.8s13.792 20.032 25.856 21.792l275.488 40 123.2 249.664c10.784 21.856 46.624 21.856 57.408 0l123.2-249.664 275.488-40c12.064-1.76 22.080-10.208 25.856-21.792s0.608-24.256-8.096-32.8z" />
<glyph unicode="&#xe91b;" glyph-name="star-1" d="M229.193-43.294c-11.219 0-22.36 3.5-31.868 10.375-17.711 12.836-25.985 34.899-21.165 56.189l65.877 290.187-223.412 195.927c-16.422 14.336-22.696 37.040-15.954 57.814 6.742 20.735 25.087 35.415 46.806 37.423l295.601 26.837 116.87 273.499c8.617 20.094 28.243 33.071 50.048 33.071s41.431-12.977 50.048-33.024l116.87-273.546 295.554-26.837c21.766-1.961 40.11-16.688 46.853-37.423s0.508-43.478-15.914-57.814l-223.412-195.888 65.877-290.179c4.828-21.336-3.453-43.4-21.157-56.197-17.665-12.797-41.22-13.782-59.822-2.602l-254.897 152.324-254.897-152.41c-8.617-5.117-18.219-7.727-27.907-7.727zM511.998 182.462c9.688 0 19.282-2.602 27.907-7.719l240.561-143.879-62.173 273.89c-4.438 19.493 2.18 39.845 17.243 53.033l210.951 185.005-279.093 25.344c-20.094 1.836-37.376 14.469-45.228 32.985l-110.167 258.1-110.3-258.139c-7.766-18.391-25.048-31.024-45.095-32.86l-279.132-25.344 210.943-185.005c15.11-13.227 21.719-33.54 17.243-53.079l-62.127-273.882 240.561 143.832c8.617 5.117 18.219 7.719 27.907 7.719zM342.821 626.169s0-0.047-0.047-0.086zM681.088 626.294l0.047-0.086c0 0.047 0 0.047-0.047 0.086z" />
<glyph unicode="&#xe91c;" glyph-name="time" d="M512-64c282.282 0 512 229.718 512 512s-229.715 512-512 512-512-229.718-512-512 229.718-512 512-512zM512 891.734c244.735 0 443.734-198.997 443.734-443.734s-198.997-443.734-443.734-443.734-443.734 198.997-443.734 443.734 198.999 443.734 443.734 443.734zM661.334 284.84c6.316-5.119 13.823-7.51 21.333-7.51 10.069 0 19.968 4.438 26.623 12.8 11.777 14.678 9.385 36.182-5.29 47.959l-157.867 126.294v256.683c0 18.774-15.359 34.133-34.133 34.133s-34.133-15.359-34.133-34.133v-273.068c0-10.411 4.78-20.139 12.8-26.623z" />
<glyph unicode="&#xe91d;" glyph-name="pin" d="M512 960c-211.961-0.29-383.71-172.039-384-383.972v-0.028c0-275.68 357.76-620.96 372.96-635.52 2.85-2.772 6.745-4.481 11.040-4.481s8.19 1.709 11.044 4.485l-0.004-0.004c15.2 14.56 372.96 359.84 372.96 635.52-0.29 211.961-172.039 383.71-383.972 384h-0.028zM512 400c-97.202 0-176 78.798-176 176s78.798 176 176 176c97.202 0 176-78.798 176-176v0c-0.060-97.178-78.822-175.94-175.994-176h-0.006z" />
<glyph unicode="&#xe91e;" glyph-name="envelope" d="M98.284 602.281c12.953-9.141 52-36.289 117.142-81.429 65.144-45.141 115.048-79.898 149.715-104.274 3.809-2.672 11.901-8.48 24.28-17.433 12.381-8.959 22.669-16.198 30.855-21.72 8.192-5.52 18.095-11.713 29.72-18.568 11.62-6.849 22.574-12.001 32.86-15.411 10.288-3.439 19.81-5.142 28.571-5.142h1.151c8.76 0 18.287 1.705 28.575 5.142 10.282 3.41 21.246 8.568 32.856 15.411 11.616 6.863 21.52 13.050 29.712 18.568 8.192 5.522 18.471 12.761 30.857 21.72 12.377 8.961 20.479 14.761 24.288 17.433 35.042 24.376 124.193 86.283 267.425 185.716 27.808 19.42 51.041 42.853 69.705 70.283 18.678 27.418 28.006 56.181 28.006 86.273 0 25.146-9.053 46.672-27.15 64.575-18.095 17.907-39.527 26.856-64.281 26.856h-841.144c-29.331 0-51.904-9.903-67.713-29.71-15.808-19.81-23.711-44.573-23.711-74.284 0-24 10.48-50.007 31.429-78.005 20.947-28 43.24-50.003 66.855-66zM966.85 541.144c-124.939-84.564-219.809-150.284-284.562-197.146-21.714-15.994-39.329-28.479-52.857-37.425-13.528-8.953-31.519-18.095-53.999-27.424-22.472-9.343-43.416-14-62.848-14h-1.157c-19.428 0-40.383 4.657-62.856 14-22.472 9.329-40.476 18.471-53.999 27.424-13.52 8.947-31.141 21.432-52.853 37.425-51.432 37.712-146.097 103.436-283.999 197.146-21.72 14.467-40.958 31.049-57.72 49.712v-453.701c0-25.158 8.949-46.672 26.856-64.577 17.903-17.911 39.431-26.864 64.575-26.864h841.146c25.138 0 46.664 8.953 64.569 26.864 17.911 17.911 26.856 39.417 26.856 64.577v453.701c-16.384-18.277-35.426-34.859-57.152-49.712z" />
<glyph unicode="&#xe91f;" glyph-name="phone-call" d="M491.372 330.222c-87.807 72.201-146.436 161.294-177.259 211.988l-22.992 43.345c8.039 8.626 69.345 74.272 95.912 109.891 33.386 44.726-15.019 85.121-15.019 85.121s-136.202 136.221-167.243 163.242c-31.041 27.059-66.772 12.030-66.772 12.030-65.24-42.154-132.873-78.803-136.931-255.059-0.151-165.020 125.118-335.224 260.582-466.99 135.682-148.81 321.973-297.96 502.079-297.789 176.237 4.020 212.877 71.643 255.031 136.883 0 0 15.038 35.703-11.993 66.772-27.049 31.060-163.29 167.29-163.29 167.29s-40.366 48.415-85.102 15c-33.339-24.921-93.207-80.354-107.63-93.793 0.028-0.047-100.121 53.342-159.374 102.069z" />
<glyph unicode="&#xe920;" glyph-name="facebook-logo" d="M767.965 959.787l-132.79 0.213c-149.185 0-245.595-98.913-245.595-252.008v-116.192h-133.514c-11.537 0-20.88-9.353-20.88-20.891v-168.35c0-11.537 9.353-20.88 20.88-20.88h133.514v-424.8c0-11.537 9.343-20.88 20.88-20.88h174.198c11.537 0 20.88 9.353 20.88 20.88v424.8h156.109c11.537 0 20.88 9.343 20.88 20.88l0.064 168.35c0 5.54-2.205 10.845-6.115 14.765s-9.236 6.125-14.776 6.125h-156.163v98.498c0 47.342 11.282 71.375 72.952 71.375l89.453 0.032c11.527 0 20.869 9.353 20.869 20.88v156.322c0 11.516-9.332 20.859-20.848 20.88z" />
<glyph unicode="&#xe921;" glyph-name="twitter" d="M607.324 526.406l373.010 433.594h-88.391l-323.885-376.484-258.686 376.484h-298.363l391.184-569.31-391.184-454.69h88.396l342.031 397.58 273.191-397.58h298.363l-405.688 590.406zM486.253 385.674l-354.997 507.782h135.772l624.957-893.939h-135.772l-269.96 386.135z" />
<glyph unicode="&#xe922;" glyph-name="youtube" d="M1001.344 707.029l1.28-8.363c-12.373 43.904-45.781 77.781-88.235 90.112l-0.896 0.213c-79.829 21.675-401.067 21.675-401.067 21.675s-320.427 0.427-401.067-21.675c-43.264-12.544-76.715-46.421-88.875-89.429l-0.213-0.896c-29.824-155.776-30.037-342.955 1.323-509.739l-1.323 8.448c12.373-43.904 45.781-77.781 88.235-90.112l0.896-0.213c79.744-21.717 401.067-21.717 401.067-21.717s320.384 0 401.067 21.717c43.307 12.544 76.757 46.421 88.917 89.429l0.213 0.896c13.568 72.448 21.333 155.819 21.333 240.981 0 3.115 0 6.272-0.043 9.429 0.043 2.901 0.043 6.357 0.043 9.813 0 85.205-7.765 168.576-22.656 249.429zM409.941 292.224v311.168l267.349-155.819z" />
<glyph unicode="&#xe923;" glyph-name="linkedin" d="M147.92 908.002c-70.395 0-116.42-46.225-116.42-106.98 0-59.414 44.654-106.957 113.719-106.957h1.336c71.771 0 116.437 47.543 116.437 106.957-1.342 60.756-44.666 106.98-115.072 106.98zM43.664 609.531h205.793v-619.137h-205.793zM754.582 624.062c-111.018 0-185.461-104.32-185.461-104.32v89.789h-205.799v-619.137h205.787v345.75c0 18.51 1.342 36.99 6.779 50.227 14.877 36.961 48.732 75.252 105.586 75.252 74.467 0 104.25-56.777 104.25-140.010v-331.219h205.775v355.002c0 190.172-101.531 278.666-236.918 278.666z" />
<glyph unicode="&#xe924;" glyph-name="search" d="M466.752 877.598c-211.572 0-383.917-172.345-383.917-383.918 0-211.571 172.345-384.25 383.917-384.25 90.369 0 173.48 31.668 239.167 84.25l159.917-159.833c7.668-7.36 18.1-11.892 29.59-11.892 23.616 0 42.76 19.145 42.76 42.76 0 11.469-4.515 21.884-11.866 29.563l0.015-0.016-159.917 159.917c52.626 65.788 84.333 149.027 84.333 239.5 0 211.573-172.428 383.918-384 383.918zM466.752 792.264c165.454 0 298.583-133.13 298.583-298.584s-133.129-298.916-298.583-298.916-298.583 133.462-298.583 298.916 133.129 298.584 298.583 298.584z" />
<glyph unicode="&#xe925;" glyph-name="twitter-1" d="M1024 765.504c-38.080-16.704-78.656-27.776-120.96-33.152 43.52 25.984 76.736 66.816 92.352 116.032-40.576-24.192-85.376-41.28-133.12-50.816-38.528 41.024-93.44 66.432-153.344 66.432-116.224 0-209.792-94.336-209.792-209.984 0-16.64 1.408-32.64 4.864-47.872-174.528 8.512-328.96 92.16-432.704 219.584-18.112-31.424-28.736-67.392-28.736-106.112 0-72.704 37.44-137.152 93.248-174.464-33.728 0.64-66.816 10.432-94.848 25.856 0-0.64 0-1.472 0-2.304 0-102.016 72.768-186.752 168.192-206.272-17.088-4.672-35.712-6.912-55.040-6.912-13.44 0-27.008 0.768-39.744 3.584 27.2-83.136 104.384-144.256 196.16-146.24-71.424-55.872-162.112-89.536-260.288-89.536-17.216 0-33.728 0.768-50.24 2.88 92.992-59.968 203.2-94.208 322.048-94.208 386.304 0 597.504 320 597.504 597.376 0 9.28-0.32 18.24-0.768 27.136 41.664 29.568 76.672 66.496 105.216 108.992z" />
<glyph unicode="&#xe926;" glyph-name="instagram" d="M602 448c0-49.703-40.297-90-90-90s-90 40.297-90 90 40.297 90 90 90 90-40.297 90-90zM664 720h-304c-66.172 0-120-53.828-120-120v-304c0-66.172 53.828-120 120-120h304c66.172 0 120 53.828 120 120v304c0 66.172-53.828 120-120 120zM512 298c-82.711 0-150 67.289-150 150s67.289 150 150 150 150-67.289 150-150-67.289-150-150-150zM684 590c-16.57 0-30 13.43-30 30s13.43 30 30 30 30-13.43 30-30-13.43-30-30-30zM754 960h-484c-148.875 0-270-121.125-270-270v-484c0-148.875 121.125-270 270-270h484c148.875 0 270 121.125 270 270v484c0 148.875-121.125 270-270 270zM844 296c0-99.25-80.75-180-180-180h-304c-99.25 0-180 80.75-180 180v304c0 99.25 80.75 180 180 180h304c99.25 0 180-80.75 180-180z" />
<glyph unicode="&#xe927;" glyph-name="check" d="M322.915 220.354c85.14 130.887 398.286 467.783 657.976 642.803 11.029 7.433 23.483-7.158 14.339-16.815-246.709-260.539-510.413-555.24-661.863-810.069-4.219-7.099-14.403-7.348-18.812-0.366-76.211 120.718-141.574 294.242-281.675 347.416-10.408 3.95-9.408 18.665 1.415 21.273 134.26 32.348 197.172-82.476 288.621-184.226v-0.016z" />
<glyph unicode="&#xe928;" glyph-name="headphones" d="M272 540c-49.628 0-90-40.372-90-90v-244c0-49.628 40.372-90 90-90s90 40.372 90 90v244c0 49.628-40.372 90-90 90zM122 450c0 8.654 1.142 17.014 2.556 25.268-36.156-11.686-62.556-45.27-62.556-85.268v-124c0-39.998 26.4-73.582 62.556-85.268-1.414 8.254-2.556 16.614-2.556 25.268v244zM752 540c-49.628 0-90-40.372-90-90v-244c0-49.628 40.372-90 90-90 9.020 0 17.564 1.736 25.784 4.216-11.168-37.018-45.174-64.216-85.784-64.216h-95.526c-12.426 34.844-45.414 60-84.474 60-49.628 0-90-40.372-90-90s40.372-90 90-90c39.060 0 72.048 25.156 84.474 60h95.526c82.706 0 150 67.294 150 150v304c0 49.628-40.372 90-90 90zM899.444 475.268c1.414-8.254 2.556-16.614 2.556-25.268v-244c0-8.654-1.142-17.014-2.556-25.268 36.156 11.686 62.556 45.27 62.556 85.268v124c0 39.998-26.4 73.582-62.556 85.268zM512 960c-248.144 0-450-201.856-450-450v-0.766c17.874 13.532 38.554 23.434 61.374 27.868 14.022 202.396 182.734 362.898 388.626 362.898s374.604-160.502 388.626-362.896c22.818-4.434 43.498-14.338 61.374-27.868v0.764c0 248.144-201.856 450-450 450z" />
<glyph unicode="&#xe929;" glyph-name="dribble" d="M512 960c-281.92 0-512-230.1-512-512 0-281.92 230.1-512 512-512 281.92 0 512 230.1 512 512 0 281.92-230.1 512-512 512zM859.28 736.98c63.92-76.68 102.94-174.78 104.62-281.78-80.12 18.74-169.1 20-259.72 3.48-23.58-4.3-47.16-9.76-70.6-16.32-7.8 21.22-16.080 42.26-24.88 63.1-8.98 21.26-18.46 42.16-28.38 62.76 107.98 41.24 224.98 102.64 278.96 168.76zM512 900c117.64 0 224.9-45.18 305.4-119.080-31.4-42.82-120.88-105.16-264.44-158.92-50.12 93.32-110.22 179.080-179.66 256.2 43.72 14.14 90.34 21.8 138.7 21.8zM313.9 854.2c70.82-75.86 131.74-160.58 181.92-252.1-149.36-48.34-300.58-68.060-424.92-55.32 30.28 135.3 121.38 247.88 243 307.42zM60 448c0 13.28 0.62 26.42 1.74 39.4 27.44-2.9 56.060-4.36 85.64-4.36 116.66 0 247.72 22.44 376.42 65.060 19.64-40.2 37.3-81.56 52.88-123.94-50.18-18.040-99.020-40.98-144.88-68.28-112.44-66.94-194.7-153.060-228.82-237.42-87.94 82.52-142.98 199.72-142.98 329.54zM512-4c-96.58 0-186.18 30.46-259.72 82.28 22.8 77.040 99.92 160.38 210.22 226.040 38.86 23.16 84.3 44.98 133.76 62.72 35.060-110.2 56.54-226.52 63.36-346.26-46.28-16.040-95.94-24.78-147.62-24.78zM718.14 45.8c-8.32 116.64-30.040 230.2-64.9 339.28 97.2 26.72 205.16 35.68 307.54 9.12-18.12-152.020-111.96-281.14-242.64-348.4z" />
<glyph unicode="&#xe92a;" glyph-name="full-screen" d="M976 944h-272c-17.673 0-32-14.327-32-32s14.327-32 32-32v0h192.128l-294.224-280.848c-6.11-5.839-9.908-14.052-9.908-23.152 0-17.675 14.329-32.004 32.004-32.004 8.575 0 16.362 3.372 22.108 8.863l-0.012-0.012 297.904 284.368v-197.216c0-17.673 14.327-32 32-32s32 14.327 32 32v0 272c0 17.673-14.327 32-32 32v0zM976 288c-17.673 0-32-14.327-32-32v0-194.752l-297.376 297.376c-5.749 5.558-13.59 8.983-22.231 8.983-17.673 0-32-14.327-32-32 0-8.641 3.425-16.482 8.991-22.24l297.367-297.367h-194.752c-17.673 0-32-14.327-32-32s14.327-32 32-32v0h272c17.673 0 32 14.327 32 32v0 272c0 17.673-14.327 32-32 32v0zM361.376 342.624l-281.376-281.376v194.752c0 17.673-14.327 32-32 32s-32-14.327-32-32v0-272c0-17.673 14.327-32 32-32v0h272c17.673 0 32 14.327 32 32s-14.327 32-32 32v0h-194.752l281.376 281.376c5.558 5.749 8.983 13.59 8.983 22.231 0 17.673-14.327 32-32 32-8.641 0-16.482-3.425-22.24-8.991l0.009 0.009zM125.248 880h194.752c17.673 0 32 14.327 32 32s-14.327 32-32 32v0h-272c-17.673 0-32-14.327-32-32v0-272c0-17.673 14.327-32 32-32s32 14.327 32 32v0 194.752l281.376-281.376c5.749-5.558 13.59-8.983 22.231-8.983 17.673 0 32 14.327 32 32 0 8.641-3.425 16.482-8.991 22.24l0.009-0.009z" />
<glyph unicode="&#xe92b;" glyph-name="check-1" d="M879.514 718.986c17.916-15.677 19.541-42.987 3.605-60.674l-448.593-497.911c-16.019-17.779-43.523-18.91-60.946-2.509l-259.585 244.378c-16.189 15.241-17.738 40.636-3.849 57.997 15.326 19.157 43.866 21.794 62.106 5.389l201.403-181.158c17.503-15.744 44.45-14.336 60.219 3.145l385.856 427.815c15.612 17.312 42.24 18.882 59.785 3.529z" />
<glyph unicode="&#xe92c;" glyph-name="dollar" d="M557.249 511.984v227.528c48.672-8.21 94.567-28.182 133.803-58.175 7.822-5.364 17-8.274 26.502-8.402 30.444 0 55.267 24.498 55.589 54.943 0.064 13.056-5.042 25.596-14.22 34.904-56.689 48.544-127.791 77.179-202.32 81.445v76.275c0 21.784-17.646 39.43-39.43 39.43-0.452 0.064-0.906 0.064-1.358 0.064-22.106 0.324-40.334-17.324-40.658-39.494v-73.689c-145.437-10.342-244.334-100.191-244.334-219.772 0-146.729 124.753-187.454 244.334-219.772v-258.557c-63.089 8.468-122.555 34.646-171.294 75.627-9.178 7.304-20.556 11.376-32.32 11.634-29.798-2.068-52.745-27.018-52.359-56.883-0.064-13.056 5.042-25.596 14.22-34.904 66.773-60.115 152.613-94.697 242.396-97.605v-71.103c0-0.452 0.064-0.906 0.064-1.358 1.034-22.106 19.844-39.17 41.95-38.072 21.784 0 39.43 17.646 39.43 39.43v72.395c176.464 11.634 247.566 118.935 247.566 232.7 0.004 152.549-127.979 199.090-247.562 231.41zM475.805 532.668c-70.457 20.684-125.399 42.014-125.399 102.129s49.772 103.423 125.399 109.239v-211.368zM557.249 147.42v235.284c73.043-20.684 129.923-48.478 129.277-116.349 0-49.126-33.612-107.301-129.277-118.935z" />
<glyph unicode="&#xe92d;" glyph-name="user" d="M510.442 455.881c67.050 38.377 112.863 109.834 112.863 192.467 0 122.746-99.863 222.609-222.609 222.609s-222.609-99.863-222.609-222.609c0-82.633 45.813-154.090 112.863-192.467-167.712-44.033-290.949-185.835-290.949-353.904v-54.672c0-12.288 9.974-22.262 22.262-22.262s22.262 9.974 22.262 22.262v54.672c-0.002 178.487 159.788 323.762 356.172 323.762s356.174-145.275 356.174-323.762v-54.672c0-12.288 9.974-22.262 22.262-22.262s22.262 9.974 22.262 22.262v54.672c-0.002 168.069-123.239 309.915-290.951 353.904zM222.609 648.349c0 98.214 79.872 178.086 178.086 178.086s178.086-79.872 178.086-178.086c0-98.214-79.872-178.086-178.086-178.086s-178.086 79.87-178.086 178.086zM810.206 455.301c48.261 31.922 80.229 86.506 80.229 148.524 0 98.214-79.872 178.086-178.086 178.086-12.288 0-22.262-9.974-22.262-22.262s9.974-22.262 22.262-22.262c73.638 0 133.565-59.927 133.565-133.565s-59.927-133.565-133.565-133.565c-12.288 0-22.262-9.974-22.262-22.262s9.971-22.257 22.259-22.257c147.322 0 267.13-110.725 267.13-246.872v-42.518c0-12.288 9.974-22.262 22.262-22.262s22.262 9.974 22.262 22.262v42.518c0 128.667-89.756 237.967-213.794 276.434z" />
<glyph unicode="&#xe92f;" glyph-name="close" d="M73.44 9.44c5.792-5.798 13.797-9.385 22.64-9.385s16.848 3.587 22.64 9.385v0l393.28 393.28 393.44-393.28c5.794-5.794 13.799-9.378 22.64-9.378 17.683 0 32.018 14.335 32.018 32.018 0 8.841-3.584 16.846-9.378 22.64l-393.44 393.28 393.28 393.44c5.794 5.794 9.378 13.799 9.378 22.64 0 17.683-14.335 32.018-32.018 32.018-8.841 0-16.846-3.584-22.64-9.378v0l-393.28-393.44-393.44 393.28c-5.559 4.783-12.847 7.695-20.815 7.695-17.673 0-32-14.327-32-32 0-7.968 2.912-15.255 7.73-20.857l-0.035 0.042 393.28-393.44-393.28-393.44c-5.751-5.784-9.305-13.757-9.305-22.56s3.555-16.776 9.307-22.562l-0.002 0.002z" />
<glyph unicode="&#xe930;" glyph-name="close-1" d="M52.912-64.003c-13.489 0-26.977 5.131-37.225 15.456-20.574 20.574-20.574 53.929 0 74.502l918.614 918.614c20.574 20.574 53.929 20.574 74.502 0s20.574-53.929 0-74.515l-918.601-918.601c-10.325-10.261-23.814-15.456-37.29-15.456zM971.59-64.003c-13.489 0-26.964 5.131-37.225 15.456l-918.678 918.601c-20.574 20.587-20.574 53.942 0 74.515s53.929 20.574 74.515 0l918.601-918.614c20.574-20.574 20.574-53.929 0-74.502-10.325-10.261-23.801-15.456-37.213-15.456z" />
<glyph unicode="&#xe931;" glyph-name="right-chevron" d="M352 800c8.184 0 16.376-3.128 22.624-9.376l320-320c12.504-12.504 12.504-32.752 0-45.248l-320-320c-12.504-12.504-32.752-12.504-45.248 0s-12.504 32.752 0 45.248l297.376 297.376-297.376 297.376c-12.504 12.504-12.504 32.752 0 45.248 6.248 6.248 14.44 9.376 22.624 9.376z" />
<glyph unicode="&#xe932;" glyph-name="left-chevron" d="M672 96c-8.184 0-16.376 3.128-22.624 9.376l-320 320c-12.504 12.504-12.504 32.752 0 45.248l320 320c12.504 12.504 32.752 12.504 45.248 0s12.504-32.752 0-45.248l-297.376-297.376 297.376-297.376c12.504-12.504 12.504-32.752 0-45.248-6.248-6.248-14.44-9.376-22.624-9.376z" />
<glyph unicode="&#xe933;" glyph-name="reply" d="M992 21.333c-11.52 0-22.357 6.229-28.075 16.683l-0.896 1.621c-95.701 172.843-278.059 280.363-475.861 280.363h-60.501v-181.333c0-12.843-7.723-24.448-19.541-29.483-11.733-4.949-25.557-2.475-34.731 6.528l-362.667 352c-6.229 6.016-9.728 14.293-9.728 22.955s3.499 16.939 9.728 22.955l362.667 352c9.216 8.96 22.997 11.52 34.731 6.528 11.819-5.035 19.541-16.64 19.541-29.483v-181.419c330.368-5.717 597.333-276.224 597.333-607.915 0-14.635-9.899-27.392-24.064-31.019-2.645-0.683-5.291-0.981-7.936-0.981zM394.667 384h92.501c178.176 0 345.131-78.037 459.264-209.536-55.211 241.877-272.085 422.869-530.432 422.869h-21.333c-17.664 0-32 14.336-32 32v137.685l-284.715-276.352 284.715-276.352v137.685c0 17.664 14.336 32 32 32z" />
<glyph unicode="&#xe934;" glyph-name="sign" d="M576 832v-384h256c0-141.156-114.844-256-256-256v-128c211.75 0 384 172.25 384 384v384zM64 448h256c0-141.156-114.844-256-256-256v-128c211.75 0 384 172.25 384 384v384h-384z" />
<glyph unicode="&#xe935;" glyph-name="plus" d="M972.797 499.2h-409.594v409.603c0 28.256-22.941 51.197-51.206 51.197-28.256 0-51.197-22.941-51.197-51.197v-409.603h-409.603c-28.256 0-51.197-22.941-51.197-51.197 0-28.266 22.941-51.206 51.197-51.206h409.603v-409.594c0-28.266 22.941-51.206 51.197-51.206 28.266 0 51.206 22.941 51.206 51.206v409.594h409.594c28.266 0 51.206 22.941 51.206 51.206 0 28.256-22.941 51.197-51.206 51.197z" />
<glyph unicode="&#xe936;" glyph-name="minus" d="M128.084 490.671c-23.164-0.524-41.742-19.426-41.742-42.667s18.578-42.143 41.694-42.666l0.049-0.001h767.834c23.164 0.524 41.742 19.426 41.742 42.667s-18.578 42.143-41.694 42.666l-0.049 0.001z" />
<glyph unicode="&#xe937;" glyph-name="ready-stock" d="M502.458 93.75l-12.322-6.166-362.136 160.948v422.64l354-157.334c2.549-1.162 5.529-1.839 8.667-1.839s6.118 0.677 8.801 1.893l-0.134-0.054 354 157.334v-180.506c0.117-11.693 9.623-21.127 21.333-21.127s21.216 9.434 21.333 21.116v213.345c-0.001 8.644-5.141 16.087-12.532 19.44l-0.134 0.054-384 170.666c-2.55 1.16-5.529 1.836-8.667 1.836s-6.117-0.676-8.801-1.891l0.134 0.054-384-170.666c-7.525-3.407-12.665-10.85-12.666-19.494v0-469.334c0.001-8.642 5.142-16.083 12.532-19.434l0.134-0.054 384-170.666c2.552-1.165 5.535-1.845 8.676-1.845 3.471 0 6.749 0.829 9.645 2.301l-0.121-0.056 21.334 10.666c7.107 3.561 11.901 10.789 11.901 19.136 0 11.784-9.552 21.336-21.336 21.336-3.52 0-6.841-0.853-9.768-2.362l0.119 0.056zM490.658 556.678l-150.924 67.082 330.266 146.782c0.38 0.17 0.696 0.418 1.060 0.6l151.078-67.142zM490.658 851.324l128.022-56.896-328.68-146.080c-0.956-0.467-1.757-0.933-2.523-1.448l0.075 0.048-128.352 57.052zM725.334 469.334c-0.001 0-0.001 0-0.002 0-117.821 0-213.334-95.513-213.334-213.334s95.513-213.334 213.334-213.334c117.821 0 213.334 95.513 213.334 213.334v0c-0.135 117.766-95.566 213.197-213.319 213.334h-0.013zM725.334 85.334c-94.256 0-170.666 76.41-170.666 170.666s76.41 170.666 170.666 170.666c94.256 0 170.666-76.41 170.666-170.666v0c-0.112-94.211-76.455-170.554-170.655-170.666h-0.011zM795.584 313.75l-91.584-91.584-38.25 38.25c-3.877 3.965-9.28 6.423-15.257 6.423-11.781 0-21.332-9.551-21.332-21.332 0-5.977 2.458-11.38 6.419-15.253l53.338-53.338c3.86-3.861 9.192-6.249 15.083-6.249s11.223 2.388 15.083 6.249l106.666 106.666c3.757 3.842 6.075 9.105 6.075 14.909 0 11.781-9.551 21.332-21.332 21.332-5.804 0-11.067-2.318-14.913-6.079l0.004 0.004z" />
<glyph unicode="&#xe938;" glyph-name="out-of-stock" d="M966.045 452.629l-73.701 101.139c-0.243 0.413-0.413 0.864-0.664 1.272-0.194 0.319-0.51 0.501-0.722 0.803-7.343 11.194-17.474 19.893-28.878 25.277l-122.246 59.41c8.48 24.594 13.308 50.87 13.308 78.309 0 132.984-108.194 241.161-241.161 241.161s-241.145-108.177-241.145-241.161c0-27.493 4.849-53.818 13.359-78.454l-121.635-59.104c-11.976-5.443-21.933-14.108-29.096-25.021l-0.007-0.010c-0.203-0.31-0.459-0.575-0.657-0.889-0.005-0.008-0.005-0.019-0.010-0.026l-74.842-102.705c-10.807-14.838-14.468-33.597-10.032-51.436 4.451-17.838 16.483-32.644 33-40.677l40.044-19.48v-177.676c0-28 16.16-53.76 41.12-65.44l317.6-154.399c9.6-4.96 20.48-7.52 32.48-7.52 11.52 0 22.399 2.56 32 7.36l317.76 154.4c24.96 12 41.12 37.601 41.12 65.601v177.68l40.037 19.477c16.517 8.032 28.549 22.839 33 40.677s0.774 36.598-10.032 51.436zM511.98 926.968c114.774 0 208.129-93.371 208.129-208.129s-93.355-208.129-208.129-208.129c-114.758 0-208.113 93.371-208.113 208.129s93.356 208.129 208.113 208.129zM95.367 390.193c-7.709 3.774-13.322 10.678-15.387 19-2.081 8.323-0.371 17.065 4.678 23.984l67.27 92.312 335.107-162.858-73.441-100.793c-8.21-11.322-23.356-15.064-35.952-8.968zM495.68-27.52c-0.319 0.16-0.64 0.319-1.12 0.48l-318.239 154.721c-13.601 6.399-22.24 20.319-22.24 35.68v161.563l209.11-101.729c8.693-4.226 17.951-6.258 27.080-6.258 19.274 0 38.049 9 50.032 25.452l55.377 75.998v-345.905zM512.044 387.257l-336.524 163.683c0.389 0.141 0.7 0.28 1.12 0.421l120.49 58.531c39.878-78.326 121.104-132.214 214.851-132.214 93.802 0 175.073 53.952 214.931 132.355l120.768-58.672c0.378-0.126 0.625-0.252 0.882-0.378zM869.92 163.36c0-15.36-8.64-29.28-22.4-35.84l-317.92-154.56c-0.319-0.16-0.64-0.319-0.96-0.48v345.463l55.019-75.556c12-16.452 30.806-25.452 50.064-25.452 9.129 0 18.387 2.032 27.064 6.258l209.133 101.735zM944.013 409.193c-2.064-8.322-7.678-15.226-15.387-19l-282.291-137.322c-12.58-6.129-27.741-2.29-35.968 8.968l-73.323 100.675 335.118 162.865 67.173-92.201c5.064-6.919 6.742-15.661 4.678-23.985zM586.722 584.758c-15.871 0-30.774 6.177-41.968 17.387l-32.774 32.758-32.758-32.758c-23.081-23.129-60.758-23.161-83.919 0-23.145 23.145-23.145 60.79 0 83.936l32.758 32.758-32.758 32.758c-23.145 23.145-23.145 60.79 0 83.936s60.806 23.113 83.919 0l32.758-32.758 32.774 32.758c22.355 22.419 61.452 22.452 83.936 0 23.129-23.145 23.129-60.79 0-83.936l-32.774-32.758 32.774-32.758c23.129-23.145 23.129-60.79 0-83.936-11.226-11.21-26.129-17.387-41.968-17.387zM511.98 674.774c4.226 0 8.452-1.613 11.677-4.839l44.452-44.436c9.936-9.936 27.29-9.936 37.226 0 10.258 10.258 10.258 26.968 0 37.226l-44.452 44.436c-3.097 3.097-4.839 7.29-4.839 11.677s1.742 8.581 4.839 11.677l44.452 44.436c10.258 10.258 10.258 26.952 0 37.226-9.936 9.936-27.29 9.936-37.226 0l-44.452-44.436c-6.452-6.452-16.903-6.452-23.355 0l-44.436 44.436c-10.258 10.242-26.952 10.242-37.21 0-10.258-10.258-10.258-26.968 0-37.226l44.436-44.436c6.452-6.452 6.452-16.903 0-23.355l-44.436-44.436c-10.258-10.258-10.258-26.968 0-37.226 10.258-10.242 26.952-10.29 37.21 0l44.436 44.436c3.226 3.226 7.452 4.839 11.677 4.839z" />
<glyph unicode="&#xe939;" d="M985.336 537.022l-417.68 0.020c-18.444 0-33.394-14.948-33.394-33.392v-133.43c0-18.44 14.95-33.392 33.392-33.392h235.212c-25.756-66.842-73.828-122.82-135.16-158.388l100.294-173.618c160.884 93.046 256 256.304 256 439.060 0 26.022-1.918 44.624-5.754 65.57-2.916 15.914-16.732 27.57-32.91 27.57z" />
<glyph unicode="&#xe93a;" d="M512 136.348c-115.108 0-215.596 62.892-269.566 155.958l-173.612-100.068c88.35-153.124 253.858-256.238 443.178-256.238 92.874 0 180.508 25.006 256 68.584v0.238l-100.294 173.62c-45.876-26.608-98.964-42.094-155.706-42.094z" />
<glyph unicode="&#xe93b;" d="M768 4.584v0.238l-100.294 173.62c-45.876-26.606-98.96-42.094-155.706-42.094v-200.348c92.874 0 180.512 25.006 256 68.584z" />
<glyph unicode="&#xe93c;" d="M200.348 448c0 56.738 15.484 109.82 42.086 155.694l-173.612 100.068c-43.818-75.254-68.822-162.65-68.822-255.762s25.004-180.508 68.822-255.762l173.612 100.068c-26.602 45.874-42.086 98.956-42.086 155.694z" />
<glyph unicode="&#xe93d;" d="M512 759.652c75.062 0 144.010-26.672 197.864-71.038 13.286-10.944 32.596-10.154 44.766 2.016l94.54 94.54c13.808 13.808 12.824 36.41-1.926 49.206-90.23 78.278-207.63 125.624-335.244 125.624-189.32 0-354.828-103.114-443.178-256.238l173.612-100.068c53.97 93.066 154.458 155.958 269.566 155.958z" />
<glyph unicode="&#xe93e;" d="M709.864 688.614c13.286-10.944 32.598-10.154 44.766 2.016l94.54 94.54c13.806 13.808 12.822 36.41-1.926 49.206-90.23 78.28-207.63 125.624-335.244 125.624v-200.348c75.060 0 144.010-26.672 197.864-71.038z" />
<glyph unicode="&#xe93f;" d="M1024 448c0-255.56-187.24-467.38-432-505.78v357.78h119.3l22.7 148h-142v96.040c0 40.5 19.84 79.96 83.44 79.96h64.56v126s-58.6 10-114.62 10c-116.94 0-193.38-70.88-193.38-199.2v-112.8h-130v-148h130v-357.78c-244.76 38.4-432 250.22-432 505.78 0 282.76 229.24 512 512 512s512-229.24 512-512z" />
<glyph unicode="&#xe940;" d="M711.3 300l22.7 148h-142v96.042c0 40.49 19.836 79.958 83.438 79.958h64.562v126s-58.592 10-114.61 10c-116.952 0-193.39-70.88-193.39-199.2v-112.8h-130v-148h130v-357.778c26.068-4.090 52.784-6.222 80-6.222s53.932 2.132 80 6.222v357.778z" />
<glyph unicode="&#xe941;" glyph-name="down-arrow" d="M274.544 158.538l212.018-212.018c6.515-6.5 15.507-10.52 25.438-10.52s18.923 4.020 25.439 10.52l212.017 212.017c4.515 4.53 7.307 10.781 7.307 17.683 0 13.835-11.215 25.050-25.050 25.050-6.903 0-13.153-2.792-17.684-7.308l-176.979-176.983v917.972c0 13.835-11.215 25.050-25.050 25.050s-25.050-11.215-25.050-25.050v0-917.972l-176.98 176.984c-4.53 4.515-10.781 7.307-17.683 7.307-13.835 0-25.050-11.215-25.050-25.050 0-6.903 2.792-13.153 7.308-17.684l-0.001 0.001z" />
<glyph unicode="&#xe942;" glyph-name="boat" d="M1006.881 311.508c-46.6 1.094-92.497-11.509-132.003-36.248-7.492-4.13-14.881-8.21-22.647-11.945l163.575 196.666c8.666 10.131 10.639 24.383 5.052 36.488s-17.711 19.849-31.044 19.829h-148.046l-179.857 130.809-8.704 17.389c-17.247 34.772-52.761 56.717-91.575 56.591h-175.641l-17.065 34.132h91.849c9.426 0 17.065 7.642 17.065 17.065s-7.64 17.065-17.065 17.065h-187.724c-9.426 0-17.065-7.64-17.065-17.065s7.64-17.065 17.065-17.065h57.717l17.065-34.132h-74.782c-28.275 0-51.197-22.921-51.197-51.197s22.921-51.197 51.197-51.197h23.585l-51.197-102.395h-15.051c-10.737-0.022-20.845-5.076-27.305-13.653l-40.958-54.611h-29.354c-5.814 0.002-11.229-2.956-14.369-7.85l-83.008-129.325c-5.888 0.342-11.827 0.648-18.329 0.648-9.426 0-17.065-7.64-17.065-17.065s7.64-17.065 17.065-17.065c40.808 0.982 80.992-10.159 115.468-32.016 39.498-24.745 85.391-37.348 131.987-36.248 36.518-1.058 72.76 6.65 105.688 22.475l0.24 0.12c9.096 4.386 17.595 9.046 25.991 13.653 34.454 21.847 74.614 32.988 115.398 32.016 40.824 0.986 81.026-10.155 115.518-32.016 39.526-24.751 85.449-37.354 132.071-36.248 46.6-1.094 92.497 11.509 132.003 36.248 34.474 21.847 74.648 32.986 115.45 32.016 9.426 0 17.065 7.64 17.065 17.065s-7.638 17.067-17.063 17.067zM642.952 618.692l46.932-34.132h-194.976c-9.426 0-17.065 7.64-17.065 17.065v17.065h165.109zM273.052 652.822c-9.426 0-17.065 7.64-17.065 17.065s7.64 17.065 17.065 17.065h288.583c24.349 0.042 46.848-12.989 58.929-34.132h-347.512zM334.796 618.692h108.914v-17.065c0-28.275 22.921-51.197 51.197-51.197h241.907l46.932-34.132h-500.148l51.197 102.395zM230.388 482.165h349.848v-17.065c0-9.426-7.64-17.065-17.065-17.065h-358.381l25.599 34.13zM759.426 243.244c-40.848-1-81.074 10.143-115.586 32.016-39.506 24.739-85.403 37.34-132.003 36.248-46.574 1.092-92.443-11.511-131.919-36.248-34.452-21.851-74.612-32.994-115.398-32.016-40.814-0.984-81.004 10.157-115.484 32.016-23.583 14.245-49.297 24.617-76.164 30.718l69.218 107.924h421.080c28.275 0 51.197 22.921 51.197 51.197v17.065h51.197v-51.197c0-9.426 7.642-17.065 17.065-17.065s17.065 7.64 17.065 17.065v51.197h34.132v-51.197c0-9.426 7.64-17.065 17.065-17.065s17.065 7.64 17.065 17.065v51.197h34.132v-51.197c0-9.426 7.64-17.065 17.065-17.065s17.065 7.64 17.065 17.065v51.095h153.438l-196.65-236.634c-11.131-1.47-22.351-2.2-33.582-2.186zM1006.881 209.114c-46.6 1.094-92.497-11.509-132.003-36.248-34.474-21.847-74.648-32.986-115.45-32.016-40.824-0.986-81.026 10.155-115.518 32.016-39.526 24.751-85.449 37.354-132.071 36.248-46.574 1.092-92.443-11.511-131.919-36.248-34.452-21.851-74.612-32.994-115.398-32.016-40.814-0.984-81.004 10.157-115.484 32.016-39.492 24.741-85.379 37.346-131.969 36.248-9.426 0-17.065-7.64-17.065-17.065s7.64-17.065 17.065-17.065c40.808 0.982 80.992-10.159 115.468-32.016 39.498-24.745 85.391-37.348 131.987-36.248 46.576-1.096 92.447 11.513 131.919 36.264 34.456 21.841 74.614 32.976 115.398 31.998 40.824 0.986 81.026-10.155 115.518-32.016 39.526-24.751 85.449-37.354 132.071-36.248 46.6-1.094 92.497 11.509 132.003 36.248 34.474 21.847 74.648 32.986 115.45 32.016 9.426 0 17.065 7.64 17.065 17.065s-7.642 17.067-17.067 17.067z" />
<glyph unicode="&#xe943;" glyph-name="yacht" d="M988.868 192.036h-733.969v62.477c0 11.434 9.3 20.735 20.735 20.735h410.694c8.528 0 16.085-5.116 19.252-13.034 3.501-8.754 13.433-13.011 22.188-9.51 26.284 10.515-0.542 56.68-41.439 56.68h-200.997v562.824c211.3-57.939 354.565-250.164 345.608-473.21h-234.659c-22.552 0-22.584-34.138 0-34.138h250.746c8.906 0 16.316 6.847 17.016 15.727 18.977 240.49-135.919 465.518-378.713 526.922v35.565c0 22.552-34.138 22.584-34.138 0v-46.904c-51.48-201.566-176.857-383-364.473-499.75-14.513-9.032-8.108-31.561 9.019-31.561h355.457v-55.474h-175.559c-30.257 0-54.873-24.616-54.873-54.873v-62.477h-151.488c-28.234 0-51.207-22.973-51.207-51.207v-76.811c0-9.426 7.643-17.069 17.069-17.069h258.169c22.552 0 22.584 34.138 0 34.138h-241.1v59.742c0 9.411 7.658 17.069 17.069 17.069h901.822c-8.705-104.985-96.931-187.76-204.124-187.76h-697.697c-22.552 0-22.584-34.138 0-34.138h697.697c131.767 0 238.967 107.2 238.967 238.967 0 9.426-7.643 17.069-17.069 17.069zM151.959 398.998c135.208 96.965 238.002 230.003 299.233 386.298v-386.298zM414.921 46.949c-22.552 0-22.584 34.138 0 34.138h55.474c22.552 0 22.584-34.138 0-34.138z" />
<glyph unicode="&#xe944;" glyph-name="yacht-1" d="M1022.684 333.902c-2.42 5.388-7.776 8.856-13.684 8.856h-161.354v34.128h49.128c6.61 0 12.442 4.328 14.356 10.654s-0.536 13.162-6.036 16.828l-80.038 53.36c-13.042 8.694-28.22 13.29-43.892 13.29h-93.842v34.128h49.128c6.61 0 12.442 4.328 14.356 10.654s-0.536 13.162-6.036 16.828l-80.038 53.36c-13.042 8.694-28.22 13.29-43.892 13.29h-85.31l-82.074 109.432c-8.84 11.788-22.916 18.826-37.652 18.826h-32.064c-4.92 0-9.526-2.412-12.33-6.456-2.802-4.044-3.444-9.204-1.716-13.81l44.044-117.452c-11.852-6.396-22.054-15.828-29.492-27.73l-56.918-91.068h-129.426c-29.386 0-56.184-16.134-69.934-42.106l-126.224-238.428c-2.462-4.65-2.308-10.25 0.406-14.756s7.59-7.262 12.85-7.262h836.944c22.584 0 44.14 9.68 59.142 26.558l109.126 122.766c3.924 4.414 4.892 10.722 2.472 16.11zM817.646 342.758h-50.162v34.128h50.162zM687.322 342.758v34.128h50.162v-34.128zM568.336 342.758l7.916 15.834c5.642 11.286 16.986 18.294 29.604 18.294h51.468v-34.128zM657.322 471.016h-50.162v34.128h50.162zM504.206 471.016l12.348 24.696c2.91 5.818 8.758 9.434 15.264 9.434h45.344v-34.128h-72.956zM405.388 697.532h10.42c5.342 0 10.446-2.552 13.652-6.826l68.574-91.432h-46.682c-3.008 0-5.98-0.196-8.92-0.524zM256.516 376.886v-34.128h-50.162v34.128zM375.504 376.886l-7.916-15.834c-5.642-11.286-16.984-18.296-29.602-18.296h-51.468v34.128h88.986zM176.354 342.758h-60.052l18.068 34.128h41.984zM931.008 262.596h-707.588c-8.284 0-15-6.716-15-15s6.716-15 15-15h680.922l-15.68-17.64c-9.314-10.48-22.698-16.49-36.718-16.49h-812.030l18.068 34.128h101.302c8.284 0 15 6.716 15 15s-6.716 15-15 15h-85.42l26.556 50.162h237.564c24.054 0 45.678 13.366 56.434 34.878l18.772 37.542c2.326 4.65 2.078 10.172-0.656 14.594s-7.56 7.114-12.76 7.114h-249.52l4.228 7.988c8.538 16.126 25.174 26.142 43.42 26.142h185.838c8.284 0 15 6.716 15 15s-6.716 15-15 15h-21.030l46.98 75.166c9.038 14.458 24.612 23.090 41.662 23.090h169.492c9.73 0 19.154-2.854 27.252-8.25l38.816-25.878h-155.092c-17.942 0-34.072-9.97-42.096-26.018l-19.056-38.112h-22.798c-8.284 0-15-6.716-15-15s6.716-15 15-15h333.296c9.73 0 19.154-2.854 27.252-8.25l38.818-25.878h-241.382c-24.054 0-45.678-13.364-56.436-34.878l-18.77-37.542c-2.326-4.65-2.078-10.172 0.656-14.594s7.562-7.114 12.76-7.114h431.532z" />
<glyph unicode="&#xe945;" glyph-name="yacht-2" d="M1019.642 25.908c-6.88 8.638-19.462 10.064-28.098 3.184-21.556-17.17-51.688-17.198-73.292-0.056l-0.298 0.238c-36.25 28.766-86.852 28.72-123.050-0.112-21.568-17.178-51.678-17.202-73.268-0.076-0.034 0.028-0.066 0.054-0.1 0.080-36.198 28.828-86.796 28.876-123.056 0.098l-0.386-0.306c-21.544-17.102-51.646-17.102-73.194-0.004l-0.404 0.322c-36.254 28.768-86.85 28.718-123.132-0.176-21.558-17.172-51.692-17.196-73.29-0.056l-0.378 0.3c-36.196 28.728-86.75 28.724-122.944-0.014l-0.374-0.296c-21.59-17.142-51.732-17.118-73.216-0.006-0.028 0.022-0.132 0.106-0.16 0.128-36.206 28.838-86.804 28.882-123.072 0.102l-0.38-0.302c-8.644-6.872-10.080-19.448-3.208-28.094 6.872-8.642 19.446-10.084 28.094-3.21l0.37 0.292c21.586 17.132 51.724 17.108 73.204-0.004 0.028-0.022 0.132-0.108 0.16-0.128 36.212-28.844 86.824-28.886 123.082-0.094l0.374 0.296c21.552 17.116 51.662 17.114 73.222 0.002l0.378-0.3c36.254-28.778 86.856-28.732 123.14 0.168 21.556 17.168 51.688 17.194 73.276 0.068l0.404-0.322c18.090-14.358 39.766-21.534 61.45-21.534 21.684 0.002 43.376 7.184 61.47 21.546l0.386 0.306c21.554 17.108 51.634 17.11 73.188 0.008 0.032-0.026 0.064-0.052 0.096-0.078 36.266-28.882 86.92-28.88 123.184 0.004 21.558 17.17 51.688 17.196 73.294 0.054l0.298-0.236c36.248-28.764 86.844-28.722 123.048 0.112 8.636 6.88 10.060 19.458 3.182 28.096zM239.232 254.236c-3.718 3.738-8.858 5.858-14.136 5.858-5.258 0-10.416-2.12-14.136-5.858-3.718-3.718-5.858-8.878-5.858-14.136s2.142-10.416 5.858-14.136c3.718-3.718 8.878-5.858 14.136-5.858 5.278 0 10.416 2.14 14.136 5.858 3.718 3.718 5.858 8.878 5.858 14.136s-2.142 10.416-5.858 14.136zM141.036 99.564l-0.28 0.232c-39.37 32.624-70.51 73.826-91.136 120.316h83.422c11.040 0 19.994 8.952 19.994 19.994s-8.954 19.994-19.994 19.994h-112.744c-6.462 0-12.524-3.124-16.278-8.382-3.752-5.26-4.73-12.008-2.63-18.118 22.122-64.294 61.49-121.21 113.836-164.588l0.27-0.224c3.732-3.1 8.258-4.608 12.756-4.608 5.744 0 11.444 2.464 15.402 7.23 7.052 8.498 5.878 21.104-2.618 28.154zM1020.282 251.718c-3.752 5.258-9.816 8.382-16.278 8.382h-471.86v639.81c0 11.042-8.954 19.994-19.994 19.994s-19.994-8.952-19.994-19.994v-639.81h-184.946c-11.040 0-19.994-8.952-19.994-19.994s8.954-19.994 19.994-19.994h667.472c-20.626-46.49-51.766-87.694-91.144-120.324l-0.27-0.224c-8.498-7.050-9.672-19.656-2.622-28.154 3.956-4.766 9.656-7.228 15.4-7.228 4.498 0 9.024 1.512 12.756 4.608l0.26 0.214c52.358 43.386 91.724 100.302 113.846 164.598 2.106 6.108 1.128 12.856-2.626 18.116zM606.264 643.38c-3.716 3.718-8.876 5.858-14.134 5.858s-10.416-2.14-14.136-5.858c-3.72-3.718-5.858-8.878-5.858-14.136s2.14-10.416 5.858-14.136 8.878-5.858 14.136-5.858c5.258 0 10.416 2.14 14.134 5.858 3.72 3.718 5.86 8.878 5.86 14.136s-2.142 10.418-5.86 14.136zM839.876 647.62c-49.82 98.586-123.158 185.328-212.088 250.848l-23.8 17.536c-6.074 4.476-14.15 5.148-20.876 1.75-6.732-3.402-10.976-10.302-10.976-17.844v-184.86c0-11.042 8.954-19.994 19.994-19.994s19.994 8.952 19.994 19.994v145.198c160.142-121.794 257.54-311.36 263.62-512.176h-263.62v211.062c0 11.042-8.954 19.994-19.994 19.994s-19.994-8.952-19.994-19.994v-231.054c0-5.302 2.108-10.388 5.856-14.138 3.75-3.748 8.836-5.856 14.138-5.856h303.906c11.040 0 19.994 8.952 19.994 19.994 0 110.46-26.336 220.954-76.154 319.54zM437.008 818.286c-8.918 2.224-18.184-1.918-22.492-10.026l-249.926-470.804c-3.286-6.196-3.090-13.666 0.526-19.678 3.614-6.014 10.12-9.692 17.134-9.692h249.926c11.040 0 19.994 8.952 19.994 19.994v470.804c0 9.184-6.254 17.186-15.162 19.402zM412.182 348.074h-196.682l196.682 370.502v-370.502z" />
</font>
</defs>
</svg>
